查看: 52|回复: 0

[剧情片] 我们的时光 Our.Time.2018.1080p.BluRay.x264-CADAVER 12.03GB

[复制链接]

 成长值: 3160

级别:资源管理组

注册时间
2017-10-20
最后登录
2019-11-15
听众
1
收听
0
主题
86778
蓝光币
61946 枚
贡献
11136 点
发表于 4 天前 | 显示全部楼层 |阅读模式
我们的时光 Our.Time.2018.1080p.BluRay.x264-CADAVER 12.03GB-1.png

译  名 我们的时光 / Our Time / Where Life is Born / 叛侣时光(港) / 敝处时光 / 爱·牧 / 生命起源
片  名 Nuestro tiempo
年  代 2018
产  地 墨西哥 / 法国 / 德国
类  别 剧情
语  言 西班牙语
上映日期 2018-09-05(威尼斯电影节)
IMDb评分  6.9/10 from 947 users
IMDb链接  https://www.imdb.com/title/tt5265964
豆瓣评分 6.3/10 from 298 users
豆瓣链接 https://movie.douban.com/subject/26653374/
片  长 173分钟
导  演 卡洛斯·雷加达斯 Carlos Reygadas
编  剧 卡洛斯·雷加达斯 Carlos Reygadas
主  演 卡洛斯·雷加达斯 Carlos Reygadas
       Phil Burgers
       Rut Reygadas


标  签 墨西哥 | 2018 | 卡洛斯·雷加达斯 | 剧情 | CarlosReygadas | 墨西哥电影 | 威尼斯电影节 | 法国

简  介  

  影片布景设定在墨西哥一处斗牛养殖场内,一对开放性关系的佳耦,感情、生活在恋爱的拷问下逐步崩塌。

获奖情况  

  第75届威尼斯电影节(2018)
  主比赛单元 金狮奖 (提名) 卡洛斯·雷加达斯

  第66届圣塞巴斯蒂安国际电影节(2018)
  地平线大奖(提名) 卡洛斯·雷加达斯
  1. Video
  2. ID                                       : 1
  3. Format                                   : AVC
  4. Format/Info                              : Advanced Video Codec
  5. Format profile                           : High@L4
  6. Format settings                          : CABAC / 5 Ref Frames
  7. Format settings, CABAC                   : Yes
  8. Format settings, Reference frames        : 5 frames
  9. Codec ID                                 : V_MPEG4/ISO/AVC
  10. Duration                                 : 2 h 56 min
  11. Bit rate                                 : 9 281 kb/s
  12. Width                                    : 1 920 pixels
  13. Height                                   : 768 pixels
  14. Display aspect ratio                     : 2.500
  15. Frame rate mode                          : Constant
  16. Frame rate                               : 24.000 FPS
  17. Color space                              : YUV
  18. Chroma subsampling                       : 4:2:0
  19. Bit depth                                : 8 bits
  20. Scan type                                : Progressive
  21. Bits/(Pixel*Frame)                       : 0.262
  22. Stream size                              : 11.5 GiB (95%)
  23. Writing library                          : x264 core 158 r2988 7817004
  24. Encoding settings                        : cabac=1 / ref=5 / deblock=1:-3:-3 / analyse=0x3:0x133 / me=umh / subme=9 / psy=1 / psy_rd=1.00:0.00 / mixed_ref=1 / me_range=24 / chroma_me=1 / trellis=1 / 8x8dct=1 / cqm=0 / deadzone=21,11 / fast_pskip=0 / chroma_qp_offset=-2 / threads=24 / lookahead_threads=4 / sliced_threads=0 / nr=0 / decimate=1 / interlaced=0 / bluray_compat=0 / constrained_intra=0 / bframes=8 / b_pyramid=2 / b_adapt=2 / b_bias=0 / direct=3 / weightb=1 / open_gop=0 / weightp=2 / keyint=250 / keyint_min=24 / scenecut=40 / intra_refresh=0 / rc_lookahead=60 / rc=2pass / mbtree=1 / bitrate=9281 / ratetol=1.0 / qcomp=0.60 / qpmin=0 / qpmax=69 / qpstep=4 / cplxblur=20.0 / qblur=0.5 / vbv_maxrate=62500 / vbv_bufsize=78125 / nal_hrd=none / filler=0 / ip_ratio=1.40 / aq=1:1.00
  25. Default                                  : Yes
  26. Forced                                   : No

  27. Audio
  28. ID                                       : 2
  29. Format                                   : AC-3
  30. Format/Info                              : Audio Coding 3
  31. Commercial name                          : Dolby Digital
  32. Codec ID                                 : A_AC3
  33. Duration                                 : 2 h 56 min
  34. Bit rate mode                            : Constant
  35. Bit rate                                 : 448 kb/s
  36. Channel(s)                               : 6 channels
  37. Channel layout                           : L R C LFE Ls Rs
  38. Sampling rate                            : 48.0 kHz
  39. Frame rate                               : 31.250 FPS (1536 SPF)
  40. Bit depth                                : 16 bits
  41. Compression mode                         : Lossy
  42. Stream size                              : 567 MiB (5%)
  43. Language                                 : Spanish
  44. Service kind                             : Complete Main
  45. Default                                  : Yes
  46. Forced                                   : No

  47. Text
  48. ID                                       : 3
  49. Format                                   : UTF-8
  50. Codec ID                                 : S_TEXT/UTF8
  51. Codec ID/Info                            : UTF-8 Plain Text
  52. Duration                                 : 2 h 51 min
  53. Bit rate                                 : 35 b/s
  54. Count of elements                        : 1665
  55. Stream size                              : 44.9 KiB (0%)
  56. Language                                 : English
  57. Default                                  : Yes
  58. Forced                                   : No

  59. Menu
  60. 00:00:00.000                             : en:Chapter 01
  61. 00:13:29.583                             : en:Chapter 02
  62. 00:28:56.083                             : en:Chapter 03
  63. 00:44:47.833                             : en:Chapter 04
  64. 00:57:08.292                             : en:Chapter 05
  65. 01:11:47.875                             : en:Chapter 06
  66. 01:24:52.792                             : en:Chapter 07
  67. 01:44:52.250                             : en:Chapter 08
  68. 01:53:50.083                             : en:Chapter 09
  69. 02:05:26.250                             : en:Chapter 10
  70. 02:22:37.583                             : en:Chapter 11
  71. 02:36:43.333                             : en:Chapter 12
复制代码

我们的时光 Our.Time.2018.1080p.BluRay.x264-CADAVER 12.03GB-2.png







VIP会员免费任意下载本站所有资源!---点击开通
回复

使用道具 举报

懒得打字嘛,点击右侧快捷回复 【右侧内容,后台自定义】
您需要登录后才可以回帖 登录 | 立即注册

本版积分规则

QQ|Archiver|手机版|小黑屋| 中国高清网 |网站地图 

GMT+8, 2019-11-15 20:35 , Processed in 0.230599 second(s), 37 queries .

Powered by HDchina X3.4

Copyright 2017-2019©HDchina.All right reserved

返回顶部 联系我们