查看: 148|回复: 1

[剧情片] 我们的时光 Our.Time.2018.720p.BluRay.x264-CADAVER 6.56GB

[复制链接]

 成长值: 5460

级别:资源管理组

注册时间
2017-10-20
最后登录
2020-5-28
听众
1
收听
0
主题
96220
蓝光币
151944 枚
贡献
20598 点
发表于 2019-11-11 09:42:58 | 显示全部楼层 |阅读模式
我们的时光 Our.Time.2018.720p.BluRay.x264-CADAVER 6.56GB-1.png
' G; n' Z9 H8 m, M
- o* E; t0 o% e4 L2 U9 d  D* j译  名 我们的时光 / Our Time / Where Life is Born / 叛侣时光(港) / 敝处时光 / 爱·牧 / 生命起源' e  m' i/ ~. D1 v% j- [
片  名 Nuestro tiempo
) r  q+ s0 u  S年  代 20182 z& ?. b$ n/ K; P" F( E) [
产  地 墨西哥 / 法国 / 德国
. n3 }# a8 N' d( S) }7 n9 v5 ]类  别 剧情" p6 [. l  Y4 o) B
语  言 西班牙语
& P" @$ w  |& o上映日期 2018-09-05(威尼斯电影节)5 c% @# U- p1 l9 v
IMDb评分  6.9/10 from 947 users
5 o2 h8 B# _0 S  p" m% TIMDb链接  https://www.imdb.com/title/tt52659640 M9 t/ T$ G2 g% o) E% }
豆瓣评分 6.3/10 from 298 users
- I1 N6 \" G) ]. I6 K" E1 Q豆瓣链接 https://movie.douban.com/subject/26653374/  p* |" L. S/ d2 ]/ G: J
片  长 173分钟
+ X5 g. @& ?8 h导  演 卡洛斯·雷加达斯 Carlos Reygadas5 |9 Y" k; m, |' _+ ]& d
编  剧 卡洛斯·雷加达斯 Carlos Reygadas
; r0 D; w3 Z" p1 ]4 x. x7 I% [主  演 卡洛斯·雷加达斯 Carlos Reygadas# g( l5 P2 c( K8 f
       Phil Burgers
2 H: y$ T' ?7 q1 T/ t       Rut Reygadas
, \8 ^- @$ p1 I) y5 }8 @8 w, V8 `9 L
: L  k" d5 {' O- K  X3 a) A
标  签 墨西哥 | 2018 | 卡洛斯·雷加达斯 | 剧情 | CarlosReygadas | 墨西哥电影 | 威尼斯电影节 | 法国
' X# `( p! m2 D( G3 Z5 p% R8 T. t" T& p+ U/ d7 J% h( v- V( z
简  介  % n3 `7 p$ A' ^, e. N
3 H# J  \0 E# C! W
  影片布景设定在墨西哥一处斗牛养殖场内,一对开放性关系的佳耦,感情、生活在恋爱的拷问下逐步崩塌。8 @& U: ~) \. E

7 }" E3 h: C2 I( R0 }获奖情况  1 u2 L* j0 R4 W0 L& Z) H  a2 Y+ |
6 a" l5 t8 k7 _! j& n) v$ e
  第75届威尼斯电影节(2018)0 Y; v( U& b" s- |. v% I! u
  主比赛单元 金狮奖 (提名) 卡洛斯·雷加达斯) W  Z" Q' z$ H8 ^3 @' l7 w
" |  z# ~. C" e
  第66届圣塞巴斯蒂安国际电影节(2018)1 {8 U8 R' r; b* V  Y
  地平线大奖(提名) 卡洛斯·雷加达斯
# l2 X7 T9 p% X# ], O
  1. Video- \0 i% s% V( v; \( i
  2. ID                                       : 1; o  }8 z3 `0 T) h- W
  3. Format                                   : AVC" W- t8 |1 M1 E) c# @
  4. Format/Info                              : Advanced Video Codec
    / X6 T2 f& N  O- ]6 J8 n) C
  5. Format profile                           : High@L4
    7 i; Y7 h3 u/ ^5 ?& Y. e5 K
  6. Format settings                          : CABAC / 12 Ref Frames
    * y2 Q; `$ m" z' h# d  X* G
  7. Format settings, CABAC                   : Yes/ ]: ^8 m/ F0 l$ T: u5 \
  8. Format settings, Reference frames        : 12 frames$ g8 \- ]  b: U; z0 f2 u
  9. Codec ID                                 : V_MPEG4/ISO/AVC8 t8 G+ D) T, t* F- ]- W
  10. Duration                                 : 2 h 56 min9 ^! t* ?4 l& ~+ L) p8 a8 w$ `5 x
  11. Bit rate                                 : 4 857 kb/s* V* ^" ?1 P! l* O
  12. Width                                    : 1 280 pixels) T4 w6 V5 S; j
  13. Height                                   : 512 pixels) M, T6 K5 c- c  z1 j& o5 Y+ L
  14. Display aspect ratio                     : 2.500
    9 C. T1 T8 A; I1 x) k0 `( a! u
  15. Frame rate mode                          : Constant
    , f! S# r+ N! F7 A( P
  16. Frame rate                               : 24.000 FPS4 |( P; x& N% Z" M* T& x9 R
  17. Color space                              : YUV
    # m! y4 m4 D$ q- j
  18. Chroma subsampling                       : 4:2:0
    $ {& U2 x$ a" N( {1 j; r
  19. Bit depth                                : 8 bits
    ! N2 z  p, p; b8 D5 K0 {2 G
  20. Scan type                                : Progressive, q# O2 C' G8 q/ N0 |, H
  21. Bits/(Pixel*Frame)                       : 0.309) q& n9 L  }# g1 X1 _7 k. ?
  22. Stream size                              : 6.00 GiB (92%)
    $ M! Q; n1 {# O6 ^( B! n
  23. Writing library                          : x264 core 158 r2988 7817004( J( C9 s8 ^' |" l6 q" X7 _" @/ k
  24. Encoding settings                        : cabac=1 / ref=12 / deblock=1:-3:-3 / analyse=0x3:0x133 / me=umh / subme=9 / psy=1 / psy_rd=1.00:0.00 / mixed_ref=1 / me_range=24 / chroma_me=1 / trellis=1 / 8x8dct=1 / cqm=0 / deadzone=21,11 / fast_pskip=0 / chroma_qp_offset=-2 / threads=16 / lookahead_threads=2 / sliced_threads=0 / nr=0 / decimate=1 / interlaced=0 / bluray_compat=0 / constrained_intra=0 / bframes=8 / b_pyramid=2 / b_adapt=2 / b_bias=0 / direct=3 / weightb=1 / open_gop=0 / weightp=2 / keyint=250 / keyint_min=24 / scenecut=40 / intra_refresh=0 / rc_lookahead=60 / rc=2pass / mbtree=1 / bitrate=4857 / ratetol=1.0 / qcomp=0.60 / qpmin=0 / qpmax=69 / qpstep=4 / cplxblur=20.0 / qblur=0.5 / vbv_maxrate=62500 / vbv_bufsize=78125 / nal_hrd=none / filler=0 / ip_ratio=1.40 / aq=1:1.00/ H2 b$ a- W! G) C- \
  25. Default                                  : Yes- F- Y7 n& D: ?9 o9 ~% ?0 ?" j: v
  26. Forced                                   : No
    4 F  B& b! V) C1 [0 H6 Y, d( F

  27. + E4 \$ J- b( q- T# {2 U4 i6 l
  28. Audio3 Y/ M2 A; Q( `+ L6 o0 y
  29. ID                                       : 2
    2 O) M# Q9 Z9 |/ J" b+ R
  30. Format                                   : AC-3
    2 l1 d: @" V  T( D+ _
  31. Format/Info                              : Audio Coding 3
    $ @2 p/ s& }) G7 Y
  32. Commercial name                          : Dolby Digital
    2 r# G2 e) ~* m, w. f
  33. Codec ID                                 : A_AC3
    % A0 e+ Y) H2 H' `# s! `
  34. Duration                                 : 2 h 56 min- o* X! Q4 `- a! c' G
  35. Bit rate mode                            : Constant
    1 \3 z( g- |5 s& G8 h' n. O' O
  36. Bit rate                                 : 448 kb/s
    6 S; d3 g) r" ?) @! P# Q. @/ M, @
  37. Channel(s)                               : 6 channels- W+ m6 ]0 n4 V0 v/ r* A# U
  38. Channel layout                           : L R C LFE Ls Rs7 s4 t; \* }: `6 {
  39. Sampling rate                            : 48.0 kHz
    ; ]6 k5 [" z0 \* J1 u
  40. Frame rate                               : 31.250 FPS (1536 SPF). @3 Y# Z8 C* d2 ~; ?( H6 I" ~+ }( C
  41. Bit depth                                : 16 bits
    % N+ Z# p6 Z, b! |9 q5 b& S5 p* \
  42. Compression mode                         : Lossy" J( |2 r4 U! O, X1 z  h9 Z
  43. Stream size                              : 567 MiB (8%)0 \# K( n7 l+ \$ `+ \% d
  44. Language                                 : Spanish- X/ {! h# n6 }8 R, `
  45. Service kind                             : Complete Main9 `6 [7 r2 X; l, Q4 K
  46. Default                                  : Yes" V4 W$ F! ]7 D1 q" m/ b0 V/ ^
  47. Forced                                   : No% X3 [: U9 ?9 ]! B- z2 {

  48. , S7 g7 s2 X7 N$ [! z5 M
  49. Text
    ; v2 Q6 d" `5 v
  50. ID                                       : 3
    " f6 S, Q9 }  o7 ~' I- v, O6 z7 m
  51. Format                                   : UTF-83 ~6 P5 c4 k1 W" g4 k: A
  52. Codec ID                                 : S_TEXT/UTF80 F# ^& Y! A+ Y% t/ p
  53. Codec ID/Info                            : UTF-8 Plain Text
    3 C. I% A# G5 p4 h
  54. Duration                                 : 2 h 51 min
    ' b5 }1 b: y3 R
  55. Bit rate                                 : 35 b/s9 l4 C' V* `; C) c% ^
  56. Count of elements                        : 1665
    . S& x( q0 M. [) j
  57. Stream size                              : 44.9 KiB (0%)2 N) x  B( \; T% u' n! _$ `
  58. Language                                 : English4 ?4 {& q2 n6 m: r+ A: I% {
  59. Default                                  : Yes# S( k; I  M, v
  60. Forced                                   : No0 ^4 W3 E+ T' J5 D

  61. 1 j* r: `+ C5 r: z' M8 W3 c
  62. Menu
    / H- w. q4 U7 t8 y
  63. 00:00:00.000                             : en:Chapter 018 `8 }5 g3 z+ V
  64. 00:13:29.583                             : en:Chapter 02
    7 X( b/ _* l" J, {2 z# l
  65. 00:28:56.083                             : en:Chapter 03
    $ \# g! H" ^  _. o% D8 Q/ D
  66. 00:44:47.833                             : en:Chapter 04
    ' @- {$ H" }/ S( M4 b" c- n6 X3 r  G% \
  67. 00:57:08.292                             : en:Chapter 05
    5 k1 y4 h2 \+ X
  68. 01:11:47.875                             : en:Chapter 065 u- u6 X: w* G" m
  69. 01:24:52.792                             : en:Chapter 073 C7 W' R8 x) O; w: Z
  70. 01:44:52.250                             : en:Chapter 08: p( ]% J" U" s  s1 Q
  71. 01:53:50.083                             : en:Chapter 09
    8 B) l. o. K6 D& I& s5 f) x
  72. 02:05:26.250                             : en:Chapter 100 ^) ^( q& B1 ]& u+ S5 }6 x, s
  73. 02:22:37.583                             : en:Chapter 110 p- J. H3 W* y1 o6 R5 t  j1 k
  74. 02:36:43.333                             : en:Chapter 12
复制代码
# i4 c* P9 d7 V9 n& |5 P- e
我们的时光 Our.Time.2018.720p.BluRay.x264-CADAVER 6.56GB-2.png 6 b4 |/ l2 {3 D; h1 X

+ K+ \! N3 b3 {9 F9 @# q! b
& H5 B7 G) Z. U: _# K* ?  ?6 O) |! q% x

6 g* F* P5 K" `. G" _$ c7 c- g/ O: R& @
- w6 l/ F, u! e7 ?; ^3 F) @. \) A/ l
8 s# a# [3 W* l+ t% y4 \
回复

使用道具 举报

级别:功成名就 Lv.9

注册时间
2019-4-24
最后登录
2020-5-25
听众
14
收听
0
主题
0
蓝光币
539 枚
贡献
0 点
发表于 2019-11-13 10:28:12 | 显示全部楼层
楼主发贴辛苦了,谢谢楼主分享!我觉得中国高清电影网是注册对了!
回复

使用道具 举报

懒得打字嘛,点击右侧快捷回复 【右侧内容,后台自定义】
您需要登录后才可以回帖 登录 | 立即注册

本版积分规则

Archiver|手机版|小黑屋| 中国高清网 ( ICP备17007870号-2 ) |网站地图 

GMT+8, 2020-5-28 12:26 , Processed in 0.140917 second(s), 38 queries .

Powered by HDchina X3.4

Copyright 2017-2019©HDchina.All right reserved

返回顶部 联系我们