查看: 37|回复: 3

[剧情片] 我们的时光 Our.Time.2018.720p.BluRay.x264-CADAVER 6.56GB

[复制链接]

 成长值: 3160

级别:资源管理组

注册时间
2017-10-20
最后登录
2019-11-11
听众
1
收听
0
主题
86761
蓝光币
61857 枚
贡献
11119 点
发表于 4 天前 | 显示全部楼层 |阅读模式
我们的时光 Our.Time.2018.720p.BluRay.x264-CADAVER 6.56GB-1.png
4 c  \! Y0 p9 ?! q/ u1 B( a) A) z' c4 l
译  名 我们的时光 / Our Time / Where Life is Born / 叛侣时光(港) / 敝处时光 / 爱·牧 / 生命起源
; C6 Z# X* C, G) S( w$ w片  名 Nuestro tiempo  }; ]* j: o) ?4 q' U3 y$ F
年  代 20183 m+ ^/ Y. a) R- m2 I
产  地 墨西哥 / 法国 / 德国8 z" i3 A* a9 ^8 l+ {% D) @
类  别 剧情
; U7 w8 D% q+ O" p4 y语  言 西班牙语
) X; q. N; N5 B& K上映日期 2018-09-05(威尼斯电影节)
1 q! v0 x6 T' I2 X2 i8 U% I" a; xIMDb评分  6.9/10 from 947 users
$ y2 B; L$ R; r9 PIMDb链接  https://www.imdb.com/title/tt5265964- F! C4 h6 _. s! a: z' f0 S
豆瓣评分 6.3/10 from 298 users! U: H* V, r# F) f
豆瓣链接 https://movie.douban.com/subject/26653374/, I$ \) ~8 O2 L$ n5 k
片  长 173分钟- J- c& }( e, i5 S' d* V
导  演 卡洛斯·雷加达斯 Carlos Reygadas
( C7 Q+ h1 g3 h4 ?: c# ?: I$ D" w6 r编  剧 卡洛斯·雷加达斯 Carlos Reygadas
3 m7 c  t  a; t0 z, ]9 x主  演 卡洛斯·雷加达斯 Carlos Reygadas
3 y5 b; ]) s9 X8 a       Phil Burgers
! z1 E$ m$ b/ I       Rut Reygadas  L0 Q) m' K% o: N, o2 ~7 ?$ t

. f; `3 w) g0 V% `6 l& w: y' f0 |- k9 x% Q$ b. v' l" ~
标  签 墨西哥 | 2018 | 卡洛斯·雷加达斯 | 剧情 | CarlosReygadas | 墨西哥电影 | 威尼斯电影节 | 法国
) B$ k, p+ z/ M; N/ V5 w" g4 r: N, n" u$ u  m# |' C
简  介  
  U% p- a6 [) ?$ {
( c# @& P; U8 H) R$ U5 q+ M  影片布景设定在墨西哥一处斗牛养殖场内,一对开放性关系的佳耦,感情、生活在恋爱的拷问下逐步崩塌。1 q: B' T: [( q- m% e5 A6 C

, o4 R# m: C1 h获奖情况  
2 f' {$ e7 C# ]% A$ Y& r' M- m, f6 o! p
  第75届威尼斯电影节(2018)
4 _0 i1 U, Q, r- m  主比赛单元 金狮奖 (提名) 卡洛斯·雷加达斯1 D3 x; W; x4 D  L5 b9 K3 z: E

6 U$ b% a7 v7 {: a  第66届圣塞巴斯蒂安国际电影节(2018)
+ A7 m( y' o' S, W' J  地平线大奖(提名) 卡洛斯·雷加达斯: ~1 i0 z& ~; w& O: Z6 k3 s
  1. Video+ Z6 c$ p% X" H$ J% W, }$ }1 S+ l# X
  2. ID                                       : 1
    " V$ U) H0 q; z: |
  3. Format                                   : AVC, G) G' @" }3 `9 q! O
  4. Format/Info                              : Advanced Video Codec: p5 ?+ I6 v$ Q" K8 F/ {
  5. Format profile                           : High@L4
    / v  q1 }6 m+ b+ }- ?  L
  6. Format settings                          : CABAC / 12 Ref Frames9 A4 c0 @8 [8 U. E5 S3 m7 e) H! Z
  7. Format settings, CABAC                   : Yes
    9 h" e" m" }. F9 B  |* d
  8. Format settings, Reference frames        : 12 frames0 L  J  p6 E+ s& x# j$ o' G3 Q
  9. Codec ID                                 : V_MPEG4/ISO/AVC
    ( ]9 S0 R+ f' k7 a* b# G3 r
  10. Duration                                 : 2 h 56 min9 F) @9 B+ i9 l% Y" s) f7 }
  11. Bit rate                                 : 4 857 kb/s& k5 Z4 w" s/ S* ^- G/ O
  12. Width                                    : 1 280 pixels2 \8 `! o4 s& d# {  W4 H
  13. Height                                   : 512 pixels3 ]. s1 ]6 a- A1 r- r
  14. Display aspect ratio                     : 2.500
    ! F1 ~5 F2 U3 |* r5 s/ G$ H1 C
  15. Frame rate mode                          : Constant
      D" x' Y1 c) i0 A/ f
  16. Frame rate                               : 24.000 FPS
    4 p# `2 ?! A' T% _9 N
  17. Color space                              : YUV4 j6 A2 ]+ k5 N7 _. k9 I# }, @
  18. Chroma subsampling                       : 4:2:0% u3 z3 \9 E2 o3 r* m5 x
  19. Bit depth                                : 8 bits4 y! E9 M$ W$ \. ?0 e; @( u
  20. Scan type                                : Progressive
    # c0 g( m; x; Z6 y0 t- q# _
  21. Bits/(Pixel*Frame)                       : 0.309
    9 o4 a; _, ~8 r" ]3 _
  22. Stream size                              : 6.00 GiB (92%); ]" h# O, |  l* m
  23. Writing library                          : x264 core 158 r2988 7817004
    & Y8 f* I, W: Y( ?& ?
  24. Encoding settings                        : cabac=1 / ref=12 / deblock=1:-3:-3 / analyse=0x3:0x133 / me=umh / subme=9 / psy=1 / psy_rd=1.00:0.00 / mixed_ref=1 / me_range=24 / chroma_me=1 / trellis=1 / 8x8dct=1 / cqm=0 / deadzone=21,11 / fast_pskip=0 / chroma_qp_offset=-2 / threads=16 / lookahead_threads=2 / sliced_threads=0 / nr=0 / decimate=1 / interlaced=0 / bluray_compat=0 / constrained_intra=0 / bframes=8 / b_pyramid=2 / b_adapt=2 / b_bias=0 / direct=3 / weightb=1 / open_gop=0 / weightp=2 / keyint=250 / keyint_min=24 / scenecut=40 / intra_refresh=0 / rc_lookahead=60 / rc=2pass / mbtree=1 / bitrate=4857 / ratetol=1.0 / qcomp=0.60 / qpmin=0 / qpmax=69 / qpstep=4 / cplxblur=20.0 / qblur=0.5 / vbv_maxrate=62500 / vbv_bufsize=78125 / nal_hrd=none / filler=0 / ip_ratio=1.40 / aq=1:1.00
    $ r0 v, D8 b+ y& B
  25. Default                                  : Yes$ L, R0 T* b8 J% Z
  26. Forced                                   : No
    ' X  C* ~! Z; x# g. o
  27. : j* X' L+ n, v0 Y$ Q  Q# D
  28. Audio/ \% X1 a  Z' s8 V
  29. ID                                       : 2& Z* _9 n$ E4 I  g7 J) v$ Z- Q
  30. Format                                   : AC-3
    4 v: q# g) m* ^5 W7 v# P
  31. Format/Info                              : Audio Coding 3
    - z7 z5 m/ z+ ~# t* `+ o( o
  32. Commercial name                          : Dolby Digital
    $ P$ [, W$ ~+ p) U* H
  33. Codec ID                                 : A_AC3
    " r" F" @; Q; k) V# [, S
  34. Duration                                 : 2 h 56 min
    ! T, b: C  o1 P0 B( _* s
  35. Bit rate mode                            : Constant
    ' R+ e, E0 f$ p/ {
  36. Bit rate                                 : 448 kb/s0 g& J/ z4 V, D/ C1 b* c
  37. Channel(s)                               : 6 channels% ~9 o3 G6 @% y& l  E3 A. h/ J
  38. Channel layout                           : L R C LFE Ls Rs
    % R- T+ D+ P4 E
  39. Sampling rate                            : 48.0 kHz& `, `+ G9 }* j4 E2 F* ]) S
  40. Frame rate                               : 31.250 FPS (1536 SPF)
    , ~! K& F' L5 M  e
  41. Bit depth                                : 16 bits
    3 R; ^( X! \; [# o9 f1 ~9 n/ G( q4 A2 v
  42. Compression mode                         : Lossy
    # h4 |5 k: H0 M, u+ v' C9 {
  43. Stream size                              : 567 MiB (8%)
    " a$ T( u' o6 }/ A# p! J3 X6 j  V
  44. Language                                 : Spanish! A0 ^- l# d2 N8 \
  45. Service kind                             : Complete Main4 Q- [; m2 W+ Q6 z3 @' J1 O. x
  46. Default                                  : Yes
    ' ~  L) ~/ J$ k$ T! h, k/ x" T
  47. Forced                                   : No% D+ Z3 ^" o: A% O. y

  48. ( `$ J/ R& S8 H( o
  49. Text# A$ l% o) S) ~) i0 A7 V' \! b# B
  50. ID                                       : 3
    - L# a& X" K" j- Z. v9 {' O3 }
  51. Format                                   : UTF-87 O1 W4 E0 W8 F- _- b
  52. Codec ID                                 : S_TEXT/UTF8
    + h4 x* A% a: y* P9 N' o0 w0 d
  53. Codec ID/Info                            : UTF-8 Plain Text3 T5 y1 j+ c5 q. |7 r1 f7 I  c' E
  54. Duration                                 : 2 h 51 min* C( v( l. E0 _
  55. Bit rate                                 : 35 b/s! h4 B% [$ L3 B, N/ u$ _6 H
  56. Count of elements                        : 16658 U) ~; Q( I" L* M
  57. Stream size                              : 44.9 KiB (0%)4 E/ R2 s7 ~/ W6 C
  58. Language                                 : English9 G* e% Y, ?1 r
  59. Default                                  : Yes
    ; n6 ?. {' r7 L3 h  t8 Z: t: C* r
  60. Forced                                   : No, G: A" P# Q" Q. o
  61. 0 `& c2 s  J9 a" M! @
  62. Menu1 t( [! b2 b5 {4 t* p9 E7 C
  63. 00:00:00.000                             : en:Chapter 01& A9 q% m: r4 M3 @8 i
  64. 00:13:29.583                             : en:Chapter 02( X" ]* N. s2 `+ R- g$ Q. k% t( x
  65. 00:28:56.083                             : en:Chapter 03
    * j2 l# F' K9 I$ m0 a$ W
  66. 00:44:47.833                             : en:Chapter 04
    ' {) }" Z& L. i
  67. 00:57:08.292                             : en:Chapter 05
    0 g( `0 A( E3 m: n5 E- ~2 x
  68. 01:11:47.875                             : en:Chapter 06* y6 ]$ M4 G6 n$ p0 k
  69. 01:24:52.792                             : en:Chapter 07: n  g7 s" ~: o2 m% O, N
  70. 01:44:52.250                             : en:Chapter 08
    " l+ A% g3 W: r) y: D1 E
  71. 01:53:50.083                             : en:Chapter 09
    2 [, s, F# }3 v  ^; {" Z2 r
  72. 02:05:26.250                             : en:Chapter 10
    : Y: [' @6 \. b. Q
  73. 02:22:37.583                             : en:Chapter 114 I! C' p# W( ~
  74. 02:36:43.333                             : en:Chapter 12
复制代码
# D9 Y7 J1 H4 i; H5 U/ Z0 A
我们的时光 Our.Time.2018.720p.BluRay.x264-CADAVER 6.56GB-2.png - g1 m2 f  @0 B! l* D/ L* l+ {

+ W. M) n/ I) d2 V( t; m( C  M7 A! d
4 [, w0 H, o! H! T/ m/ t& `
& C$ J6 B5 l5 R/ A
; ^3 Q' H- \7 `. U
4 D  i6 m7 k* F. R) y$ x4 I8 }6 {9 x( P4 _+ H

5 d- a; j7 w% m5 D5 \% E0 @
VIP会员免费任意下载本站所有资源!---点击开通
回复

使用道具 举报

级别:一举成名 Lv.7

注册时间
2019-4-24
最后登录
2019-11-14
听众
13
收听
0
主题
0
蓝光币
194 枚
贡献
0 点
发表于 前天 10:28 | 显示全部楼层
楼主发贴辛苦了,谢谢楼主分享!我觉得中国高清电影网是注册对了!
VIP会员免费任意下载本站所有资源!---点击开通
回复

使用道具 举报

级别:群众演员 Lv.3

注册时间
2018-1-26
最后登录
2019-11-15
听众
3
收听
0
主题
0
蓝光币
3 枚
贡献
0 点
发表于 前天 20:20 | 显示全部楼层
██████在-线-看-片bxxp7.c o m 】██████
6 ~* u/ u2 M; e. q+ D0 X) p- o; F3 z# E! O4 y4 r
██████在-线-看-片
bxxp7.c o m 】██████
* y9 }9 C" r6 O6 L2 q1 e- V
, ~! u8 }; f- n# c4 Z4 t$ e* S██████在-线-看-片
bxxp7.c o m 】██████
9 j# k1 q( H8 k- d  M9 e# h5 A+ {  l$ J7 b
██████在-线-看-片
bxxp7.c o m 】██████& D9 v3 E- `. R

1 e$ f( `, N/ x; o██████在-线-看-片
bxxp7.c o m 】██████9 s6 h+ c( }' A6 f* |" S7 E
- m. F5 c8 w  H, w
██████在-线-看-片
bxxp7.c o m 】██████
3 l% c6 v9 x) X. Q1 q; c
$ b! `5 {' L. n! Z; d██████在-线-看-片
bxxp7.c o m 】██████
VIP会员免费任意下载本站所有资源!---点击开通
回复

使用道具 举报

级别:群众演员 Lv.3

注册时间
2018-1-26
最后登录
2019-11-15
听众
3
收听
0
主题
0
蓝光币
3 枚
贡献
0 点
发表于 10 小时前 | 显示全部楼层
██████在-线-看-片bxxp7.c o m 】██████* c/ E# n0 p  l  Y. i9 ]

1 u: g! f2 ]4 X. V██████在-线-看-片
bxxp7.c o m 】██████$ @5 b1 E6 u+ i. h) B

$ {# H$ i2 Q3 b) m/ `4 i/ l3 B██████在-线-看-片
bxxp7.c o m 】██████
9 t3 J2 Y9 B$ N' t  r4 Q/ c6 Y' E4 c
██████在-线-看-片
bxxp7.c o m 】██████9 w! B5 m$ A6 p( w+ j: p

# W/ l% w/ o8 j/ F& Q$ t' N! i██████在-线-看-片
bxxp7.c o m 】██████# A5 ?- f! H& D' F. _4 K  D

. _3 L0 U" i: g) |1 ?██████在-线-看-片
bxxp7.c o m 】██████
# r  Q4 ?2 H! P2 h
3 O7 w4 S- d7 {  Z3 b1 ?4 a* D██████在-线-看-片
bxxp7.c o m 】██████
VIP会员免费任意下载本站所有资源!---点击开通
回复

使用道具 举报

懒得打字嘛,点击右侧快捷回复 【右侧内容,后台自定义】
您需要登录后才可以回帖 登录 | 立即注册

本版积分规则

QQ|Archiver|手机版|小黑屋| 中国高清网 |网站地图 

GMT+8, 2019-11-15 10:31 , Processed in 0.281998 second(s), 37 queries .

Powered by HDchina X3.4

Copyright 2017-2019©HDchina.All right reserved

返回顶部 联系我们