查看: 57|回复: 4

[动画片] 超人之死与超人归来 The.Death.and.Return.of.Superman.2019.720p.BluRay.x264-GETiT 5.47GB

[复制链接]

 成长值: 3160

级别:资源管理组

注册时间
2017-10-20
最后登录
2019-11-11
听众
1
收听
0
主题
86761
蓝光币
61817 枚
贡献
11119 点
发表于 4 天前 | 显示全部楼层 |阅读模式
超人之死与超人归来 The.Death.and.Return.of.Superman.2019.720p.BluRay.x264-GETiT 5.47GB-1.png " ?- A, B' h, N6 ^5 I* {. H

5 x3 [( p$ _* J+ {. {9 w译  名 超人之死与超人归来
1 e) A, T) @; y# @( a0 ^3 x! o( W片  名 The Death and Return of Superman
( d4 z$ e1 `0 e, m( [4 y) _年  代 2019( \3 ^. x/ _6 c% G/ |4 r. j' {% U; F
产  地 美国
- ^, ^+ s" P7 z- J2 z% J& I类  别 动画
+ i8 W# |" D3 E0 C$ f0 z语  言 英语
0 |2 G% M4 Z1 s8 o: `上映日期 2019-10-01(美国): G* W7 N+ i1 L1 b8 e
IMDb链接  http://www.imdb.com/title/tt11043546! g; ]/ H) Q# Z
豆瓣评分 0/10 from 0 users
! H0 x, ]8 K! @豆瓣链接 https://movie.douban.com/subject/34845738/
7 z  W( @, j+ |片  长 166分钟
/ ^4 Q: Y' I. g导  演 杰克·卡斯托雷纳 Jake Castorena / 刘山姆 Sam Liu
) q* Z& h+ Y6 t3 Q# j编  剧 比尔·芬格 Bill Finger5 B$ }! j) l) t, q( G9 |0 @  b
主  演 杰瑞·奥康奈尔 Jerry O'Connell
& _7 h: |- p* {! T6 G3 k       丽贝卡·罗梅恩 Rebecca Romijn; Q& m5 f0 `. U
       罗莎里奥·道森 Rosario Dawson) X$ R) z; n/ E# @+ R' t$ i
       耐姆比·耐姆比 Nyambi Nyambi
3 _! l1 E: l+ X1 s8 h8 U% b. v% ^; j       乔纳森·亚当斯 Jonathan Adams
% P8 u; P# R: l& ^. V& k( R0 J       洛奇·卡罗尔 Rocky Carroll! w) o; z" {" {0 S0 W
       特雷弗·德瓦 Trevor Devall) }8 K, {: m" s" o0 p9 I6 |' L, }6 L& D
       保罗·伊丁 Paul Eiding
' I3 i6 o/ ^1 x% G       詹妮弗·黑尔 Jennifer Hale. B- B! H9 h- k. y4 r5 G3 n9 L
       查尔斯·哈尔福德 Charles Halford
4 Y# F) A! X3 u) z5 d% @       艾丽卡·鲁特雷尔 Erica Luttrell& G2 y6 R" a) }  }3 E. |
       马克斯·迈特尔曼 Max Mittelman
6 B3 s$ }7 @( A6 e. M1 ], d- o       托克斯·奥拉贡多耶 Toks Olagundoye6 j* Q' x: W6 `% T- X/ S* l
       里克·帕斯夸隆 Rick Pasqualone8 M4 B5 u& P$ _" O; A7 d' M
       Amanda Troop
& u# h# T. j3 \8 f% u) a: d# U( n( }3 q& b  c

* y, r$ A: R+ G简  介  
; G9 w1 q: h+ O. n" _; ]# r2 k/ T# Q% ]# y/ M4 P  r  c
  The Death of Superman and Reign of the Supermen now presented as an over two-hour unabridged and seamless animated feature. Witness the no-holds-barred battle between the Justice League and an unstoppable alien force known only as Doomsday, a battle that only Superman can finish and will forever change the face of Metropolis.
. Q, ]* Z# W: C+ a# e* ~  a  The Death and Return of Superman finds Superman in a fight to the finish when the Man of Steel becomes the only hero who can stand in the way of the monstrous creature Doomsday and his unstoppable rampage. Superman saves the planet, but not himself, leaving Earth’s citizens – and his heroic contemporaries – dealing with a world without Superman. The aftermath of Superman’s death, and the subsequent disappearance of his body, leads to a new mystery – is Superman still alive? The question is further complicated when four new super-powered individuals – Steel, Cyborg Superman, Superboy and the Eradicator – emerge to proclaim themselves as the ultimate hero. In the end, only one will be able to proclaim himself the world’s true Superman.
' {0 b5 P' x, l8 ?
  1. Video) D- [0 L+ l2 Z6 P. S+ F
  2. ID                                       : 1
    5 }1 T1 F% r% f. x
  3. Format                                   : AVC
    ' |: g: E/ w! g, Y4 U5 |" E
  4. Format/Info                              : Advanced Video Codec( D# p# \5 G- C3 [
  5. Format profile                           : High@L4
    $ D% \, G1 N3 \* o6 R" n6 _' k$ R& C
  6. Format settings                          : CABAC / 5 Ref Frames2 M. `' L9 y5 [4 N4 q
  7. Format settings, CABAC                   : Yes
    5 w4 F2 u( w( i2 f% G$ @7 V
  8. Format settings, Reference frames        : 5 frames- D0 ]% F6 s0 V
  9. Codec ID                                 : V_MPEG4/ISO/AVC1 p1 i0 j9 t/ i
  10. Duration                                 : 2 h 46 min3 L4 F% e- O! ^
  11. Bit rate                                 : 3 191 kb/s
    # \- v7 y  N' m3 J
  12. Width                                    : 1 280 pixels' w. ]+ L6 D1 `& H$ M/ ^
  13. Height                                   : 720 pixels
    : ]* P, ^+ c3 S# w2 u
  14. Display aspect ratio                     : 16:9
    + p6 j& W1 d4 ^& z" w0 H
  15. Frame rate mode                          : Constant" ^: C' Y/ S4 ~/ {
  16. Frame rate                               : 23.976 (24000/1001) FPS
    ; k4 A) u8 A. `. Z1 j5 \) Y" h
  17. Color space                              : YUV: q' o) I1 e$ y
  18. Chroma subsampling                       : 4:2:0* i5 g0 Z& k0 F9 {( P; m7 W
  19. Bit depth                                : 8 bits
    ! p  z& m  x! ^" r& x$ \" K' U/ A
  20. Scan type                                : Progressive
    8 ~+ B1 R; Q! M" @" W: I
  21. Bits/(Pixel*Frame)                       : 0.1441 A1 I8 V/ G& ]) q% a) i0 j3 U
  22. Stream size                              : 3.60 GiB (66%)" k) R1 K0 a5 c* a5 h
  23. Writing library                          : x264 core 157 r2969 d4099dd
    % T4 B" e; U" Y
  24. Encoding settings                        : cabac=1 / ref=5 / deblock=1:-2:-2 / analyse=0x3:0x113 / me=umh / subme=8 / psy=1 / psy_rd=1.00:0.00 / mixed_ref=1 / me_range=16 / chroma_me=1 / trellis=2 / 8x8dct=1 / cqm=0 / deadzone=21,11 / fast_pskip=1 / chroma_qp_offset=-2 / threads=22 / lookahead_threads=3 / sliced_threads=0 / nr=0 / decimate=1 / interlaced=0 / bluray_compat=0 / constrained_intra=0 / bframes=3 / b_pyramid=2 / b_adapt=2 / b_bias=0 / direct=3 / weightb=1 / open_gop=0 / weightp=2 / keyint=240 / keyint_min=24 / scenecut=40 / intra_refresh=0 / rc_lookahead=50 / rc=2pass / mbtree=1 / bitrate=3191 / ratetol=1.0 / qcomp=0.60 / qpmin=0 / qpmax=69 / qpstep=4 / cplxblur=20.0 / qblur=0.5 / ip_ratio=1.40 / aq=1:1.00& V  G0 K! k9 _1 s- C* n( S' `, s
  25. Language                                 : English; d, |7 K/ L* e; V2 A
  26. Default                                  : Yes
    ( d4 J1 ~9 B8 c5 r7 x! D
  27. Forced                                   : No
    + d+ h" d7 B; ~$ O

  28.   {0 u2 L$ H9 i' K+ ]
  29. Audio% s; Z0 L6 {; |1 |& I% L
  30. ID                                       : 2
    ; b9 u  w, s, u; h$ p8 R! ?
  31. Format                                   : DTS
    , r- x* v' d( Q  w0 K
  32. Format/Info                              : Digital Theater Systems' K0 e7 k+ H: g; p* Q9 M
  33. Codec ID                                 : A_DTS
    4 B2 q8 s. N- a4 q# D
  34. Duration                                 : 2 h 46 min
    ' q9 Y/ y* Q8 K( ]
  35. Bit rate mode                            : Constant8 r0 \1 N+ a- D3 _2 B7 q
  36. Bit rate                                 : 1 509 kb/s( K- l+ E8 u" C& C1 \3 E
  37. Channel(s)                               : 6 channels
    ) w( G0 D( s3 v# C
  38. Channel layout                           : C L R Ls Rs LFE
    ' ?9 C7 [% L7 W7 j2 V
  39. Sampling rate                            : 48.0 kHz
    , b- D- _7 L! t& v; T
  40. Frame rate                               : 93.750 FPS (512 SPF)
    $ n( c( G" E& r: D6 U
  41. Bit depth                                : 24 bits
    " m8 @7 G$ y% t& l2 T7 X3 t
  42. Compression mode                         : Lossy- g) c5 z% ^  y2 N) ?% p0 W" v7 q
  43. Stream size                              : 1.75 GiB (32%). Z) Y& K# H2 ?0 P3 |5 q& c- D
  44. Language                                 : English9 r0 x+ @6 K* C4 [5 x, F
  45. Default                                  : Yes
    8 G0 h) e" m2 M- }) k  o
  46. Forced                                   : No
    " c$ L* e! T) @
  47. " p, Y7 u- P  T; Y: Q6 Z6 s8 n: U# g  s! J
  48. Menu1 e5 H. U; a! \) v
  49. 00:00:00.000                             : en:00:00:00.000
    ) P. S# C, V: F# d6 l: v9 |
  50. 00:07:48.927                             : en:00:07:48.927
    ; r& Q$ k  b# l9 n0 k* n& K
  51. 00:14:28.034                             : en:00:14:28.034  S3 n2 v3 f, q: b1 _1 n, V
  52. 00:25:28.193                             : en:00:25:28.1936 K2 b' E; J- p0 M
  53. 00:33:27.839                             : en:00:33:27.839
    + u5 d7 R; i0 `$ y) y) t- a5 Q" E
  54. 00:43:19.847                             : en:00:43:19.847
    6 n% D! L7 |* o4 q* }
  55. 00:50:19.767                             : en:00:50:19.767
    4 N! B  C$ k% y( Y# n  _
  56. 01:00:19.282                             : en:01:00:19.282
    ' s! Y+ T* {" A% R! ]' ~6 E4 t$ u: o, {
  57. 01:09:33.878                             : en:01:09:33.878
    ' u/ @( y  e( i. n0 d) A8 S
  58. 01:18:22.656                             : en:01:18:22.656; J; \$ v  d7 G2 P6 @" Z
  59. 01:26:38.693                             : en:01:26:38.693) I' y2 [' N  U; f$ M  G
  60. 01:32:43.266                             : en:01:32:43.266
    ' c$ Q" }/ Z  p/ Y8 @
  61. 01:40:51.879                             : en:01:40:51.879
    1 ]/ S, u6 d! v: G, w  B# X+ F; _3 o
  62. 01:51:19.965                             : en:01:51:19.965+ V% |; S* h- G3 c5 o
  63. 01:59:28.119                             : en:01:59:28.119
    8 W: U6 |% W$ y! O9 h2 a1 G2 X. U2 q2 l+ B
  64. 02:08:28.743                             : en:02:08:28.7436 q7 D$ a6 `6 o7 c: E8 ]
  65. 02:17:40.127                             : en:02:17:40.127
    9 x' n& ~6 h2 O1 D
  66. 02:27:44.064                             : en:02:27:44.064
    9 F0 R  t$ k0 C& q+ r% V4 R
  67. 02:35:26.317                             : en:02:35:26.317( q. q$ f/ q$ t& t8 H! d4 d% M' W
  68. 02:42:50.094                             : en:02:42:50.094
复制代码
- z6 J* A' t' ^/ r, V% U
超人之死与超人归来 The.Death.and.Return.of.Superman.2019.720p.BluRay.x264-GETiT 5.47GB-2.png
9 J/ y: I: D( B) p1 F" A5 H- p' d: N( Z+ U6 Y# ?) ^) G! V
* T7 D, I2 b) [; ]. D; b& N
" R: N) {* W, A

) D# [9 Q1 ?+ F3 m% H+ t( b, e  u  r5 `0 H- g) l

& B; l1 o  A9 q5 J9 x  A. u: x6 [/ q" T4 u
VIP会员免费任意下载本站所有资源!---点击开通
回复

使用道具 举报

级别:荣升主角 Lv.5

注册时间
2018-2-26
最后登录
2019-11-14
听众
15
收听
0
主题
0
蓝光币
276 枚
贡献
0 点
发表于 3 天前 | 显示全部楼层
% m6 p8 M) H8 K+ y9 y+ c. Z
既然你诚信诚意的推荐了,那我就勉为其难的看看吧!中国高清电影网不走平凡路。
VIP会员免费任意下载本站所有资源!---点击开通
回复

使用道具 举报

级别:一举成名 Lv.7

注册时间
2019-4-24
最后登录
2019-11-14
听众
13
收听
0
主题
0
蓝光币
194 枚
贡献
0 点
发表于 前天 10:30 | 显示全部楼层
楼主发贴辛苦了,谢谢楼主分享!我觉得中国高清电影网是注册对了!
VIP会员免费任意下载本站所有资源!---点击开通
回复

使用道具 举报

级别:群众演员 Lv.3

注册时间
2018-1-26
最后登录
2019-11-15
听众
3
收听
0
主题
0
蓝光币
3 枚
贡献
0 点
发表于 前天 20:21 | 显示全部楼层
██████在-线-看-片bxxp7.c o m 】██████
+ T8 O$ {$ H8 A. Q8 G0 T" r6 i5 Q6 ~& L
██████在-线-看-片
bxxp7.c o m 】██████
2 t; X) L% @; m, A
& Z& _; }/ Z1 C4 ]4 m██████在-线-看-片
bxxp7.c o m 】██████0 O0 v) N) g6 X, ?0 d3 H# a* G

( i4 L( c& I+ I/ W% H██████在-线-看-片
bxxp7.c o m 】██████
5 V# ~! D" B$ M- r( {$ w* c# V- D2 d- t# A# A
██████在-线-看-片
bxxp7.c o m 】██████
& V8 ]  f: o) O' N  D1 a2 d3 V$ j6 `7 _1 J; y0 {; t
██████在-线-看-片
bxxp7.c o m 】██████
5 R$ A% _7 B% I9 N5 g, [8 |, h+ O- S. o, b5 w6 D  k$ W# H8 y7 k
██████在-线-看-片
bxxp7.c o m 】██████
VIP会员免费任意下载本站所有资源!---点击开通
回复

使用道具 举报

级别:群众演员 Lv.3

注册时间
2018-1-26
最后登录
2019-11-15
听众
3
收听
0
主题
0
蓝光币
3 枚
贡献
0 点
发表于 4 小时前 | 显示全部楼层
██████在-线-看-片bxxp7.c o m 】██████
' d' L( a: y4 O
0 n  }4 s% v# [" e/ J! A██████在-线-看-片
bxxp7.c o m 】██████
& K# A% C0 b  p1 r4 O+ Z9 N+ r+ S( @6 ~
██████在-线-看-片
bxxp7.c o m 】██████# a# v5 [2 E$ S4 w' ~

6 t, y: y, y( M██████在-线-看-片
bxxp7.c o m 】██████+ U* G! E5 M. L: {$ o, ~( O( n7 S

; }4 r' {; ?* s2 M! Y. ?+ k██████在-线-看-片
bxxp7.c o m 】██████
# b9 L1 _/ |  x, d+ a+ H& g& ^! F/ M
██████在-线-看-片
bxxp7.c o m 】██████  v% T9 f* i) y7 f, R

( ]5 q1 j8 _, m% W8 l1 ]/ e██████在-线-看-片
bxxp7.c o m 】██████
VIP会员免费任意下载本站所有资源!---点击开通
回复

使用道具 举报

懒得打字嘛,点击右侧快捷回复 【右侧内容,后台自定义】
您需要登录后才可以回帖 登录 | 立即注册

本版积分规则

QQ|Archiver|手机版|小黑屋| 中国高清网 |网站地图 

GMT+8, 2019-11-15 08:13 , Processed in 0.266152 second(s), 37 queries .

Powered by HDchina X3.4

Copyright 2017-2019©HDchina.All right reserved

返回顶部 联系我们