查看: 20|回复: 0

[恐怖片] 剥皮女魔 Skinner.1993.1080p.BluRay.REMUX.AVC.LPCM.2.0-FGT 18.83GB

[复制链接]

 成长值: 3140

级别:资源管理组

注册时间
2017-10-20
最后登录
2019-11-11
听众
1
收听
0
主题
86761
蓝光币
61613 枚
贡献
11119 点
发表于 前天 09:24 | 显示全部楼层 |阅读模式
剥皮女魔 Skinner.1993.1080p.BluRay.REMUX.AVC.LPCM.2.0-FGT 18.83GB-1.png

译  名 剥皮女魔
片  名 Skinner
年  代 1993
产  地 美国
类  别 可骇
语  言 英语
上映日期 1995-07-12
IMDb评分  5.0/10 from 500 users
IMDb链接  http://www.imdb.com/title/tt0114466
豆瓣评分 0/10 from 0 users
豆瓣链接 https://movie.douban.com/subject/1298775/
片  长 90分钟
导  演 Ivan Nagy (I)
编  剧 Paul Hart-Wilden
主  演 Traci Lords
       Richard SchiffDavid
       Ted Raimi


标  签 可骇 | 血腥 | 变态 | 剥皮女魔 | 杀戮 | 美国电影 | VCD | 1

简  介  

  海蒂被一残暴的神经病患丹尼斯毁容,他专门在城市里的街道及河滨猎取不知情的妓女,海蒂一心复仇,无法计齐截次又一次地失利。正当另一位女子凯莉被丹尼斯抓走之际,海蒂及凯莉的丈夫杰夫实时在一间烧毁的仓库找到了他们,就在丹尼斯预备切割凯莉时,海蒂牺牲了自己...。
  1. Video
  2. ID                                       : 1
  3. Format                                   : AVC
  4. Format/Info                              : Advanced Video Codec
  5. Format profile                           : High@L4
  6. Format settings                          : CABAC / 4 Ref Frames
  7. Format settings, CABAC                   : Yes
  8. Format settings, Reference frames        : 4 frames
  9. Codec ID                                 : V_MPEG4/ISO/AVC
  10. Duration                                 : 1 h 28 min
  11. Bit rate mode                            : Variable
  12. Bit rate                                 : 29.0 Mb/s
  13. Maximum bit rate                         : 37.2 Mb/s
  14. Width                                    : 1 920 pixels
  15. Height                                   : 1 080 pixels
  16. Display aspect ratio                     : 16:9
  17. Frame rate mode                          : Constant
  18. Frame rate                               : 23.976 (24000/1001) FPS
  19. Standard                                 : NTSC
  20. Color space                              : YUV
  21. Chroma subsampling                       : 4:2:0
  22. Bit depth                                : 8 bits
  23. Scan type                                : Progressive
  24. Bits/(Pixel*Frame)                       : 0.583
  25. Stream size                              : 17.9 GiB (95%)
  26. Title                                    : Skinner.1993.1080p.BluRay.REMUX.AVC.LPCM.2.0-FGT
  27. Language                                 : English
  28. Default                                  : No
  29. Forced                                   : No
  30. Color range                              : Limited
  31. Color primaries                          : BT.709
  32. Transfer characteristics                 : BT.709
  33. Matrix coefficients                      : BT.709

  34. Audio
  35. ID                                       : 2
  36. Format                                   : PCM
  37. Format settings                          : Little / Signed
  38. Codec ID                                 : A_PCM/INT/LIT
  39. Duration                                 : 1 h 28 min
  40. Bit rate mode                            : Constant
  41. Bit rate                                 : 1 536 kb/s
  42. Channel(s)                               : 2 channels
  43. Sampling rate                            : 48.0 kHz
  44. Frame rate                               : 30.000 FPS (1600 SPF)
  45. Bit depth                                : 16 bits
  46. Stream size                              : 970 MiB (5%)
  47. Title                                    : Skinner.1993.1080p.BluRay.REMUX.AVC.LPCM.2.0-FGT
  48. Language                                 : English
  49. Default                                  : Yes
  50. Forced                                   : No

  51. Text
  52. ID                                       : 3
  53. Format                                   : PGS
  54. Muxing mode                              : zlib
  55. Codec ID                                 : S_HDMV/PGS
  56. Codec ID/Info                            : Picture based subtitle format used on BDs/HD-DVDs
  57. Duration                                 : 1 h 28 min
  58. Bit rate                                 : 26.8 kb/s
  59. Count of elements                        : 1797
  60. Stream size                              : 16.9 MiB (0%)
  61. Title                                    : English-PGS
  62. Language                                 : English
  63. Default                                  : Yes
  64. Forced                                   : No

  65. Menu
  66. 00:00:00.000                             : en:Chapter 01
  67. 00:11:20.429                             : en:Chapter 02
  68. 00:23:50.387                             : en:Chapter 03
  69. 00:37:53.062                             : en:Chapter 04
  70. 00:54:25.929                             : en:Chapter 05
  71. 01:06:55.052                             : en:Chapter 06
  72. 01:16:20.742                             : en:Chapter 07
  73. 01:25:29.082                             : en:Chapter 08
复制代码

剥皮女魔 Skinner.1993.1080p.BluRay.REMUX.AVC.LPCM.2.0-FGT 18.83GB-2.png 剥皮女魔 Skinner.1993.1080p.BluRay.REMUX.AVC.LPCM.2.0-FGT 18.83GB-3.png 剥皮女魔 Skinner.1993.1080p.BluRay.REMUX.AVC.LPCM.2.0-FGT 18.83GB-4.png







VIP会员免费任意下载本站所有资源!---点击开通
回复

使用道具 举报

懒得打字嘛,点击右侧快捷回复 【右侧内容,后台自定义】
您需要登录后才可以回帖 登录 | 立即注册

本版积分规则

QQ|Archiver|手机版|小黑屋| 中国高清网 |网站地图 

GMT+8, 2019-11-13 17:07 , Processed in 31.333617 second(s), 37 queries .

Powered by HDchina X3.4

Copyright 2017-2019©HDchina.All right reserved

返回顶部 联系我们