查看: 5|回复: 0

[剧情片] 高校奇女子 What.Goes.Up.2009.1080p.WEBRip.x264-RARBG 2.20GB

[复制链接]

 成长值: 3210

级别:资源管理组

注册时间
2017-10-20
最后登录
2019-11-20
听众
1
收听
0
主题
87221
蓝光币
63004 枚
贡献
11580 点
发表于 2019-11-11 09:16:25 | 显示全部楼层 |阅读模式
高校奇女子 What.Goes.Up.2009.1080p.WEBRip.x264-RARBG 2.20GB-1.png

译  名 高校奇女子 / Safety Glass / 平安玻璃
片  名 What Goes Up
年  代 2009
产  地 美国
类  别 剧情
语  言 英语
上映日期 2009-05-06
IMDb评分  5.4/10 from 1769 users
IMDb链接  https://www.imdb.com/title/tt0832318
豆瓣评分 5.3/10 from 261 users
豆瓣链接 https://movie.douban.com/subject/2158228/
导  演 Jonathan Glatzer
编  剧 Jonathan Glatzer / Robert Lawson
主  演 Steve Coogan
       Hilary Duff
       Olivia Thirlby
       Josh Peck
       Molly Shannon
       Molly Price


标  签 HilaryDuff | 美国 | 美国电影 | 我看过的电影 | 我看过的英语电影 | 2009 | 电影 | 剧情

简  介  

  故事发生在80年月的美国,坎贝尔(史蒂夫·库根 Steve Coogan 饰)是在纽约报任职的记者,未几之前,他的情人自杀身亡,使得坎贝尔一向都没法走出阴影,工作上有所倦怠,形成了主编的不满。主编将他发配到了一个偏僻的小镇上采访置之不理的小消息。坎贝尔想起自己已经的大学同学山姆在这里当教员,决议造访他,以后震动的得知,山姆在未几之前往世了。
  坎贝尔决议山姆的死并不像概况看起来的那末简单,便决议将此作为报道素材,深入追踪观察。在彻完全底的融入了山姆的朋友圈后,坎贝尔终究发现了山姆费心隐藏的奥秘以及他实在的死因。
  1. Video
  2. ID                                       : 1
  3. Format                                   : AVC
  4. Format/Info                              : Advanced Video Codec
  5. Format profile                           : High@L4
  6. Format settings                          : CABAC / 4 Ref Frames
  7. Format settings, CABAC                   : Yes
  8. Format settings, Reference frames        : 4 frames
  9. Codec ID                                 : avc1
  10. Codec ID/Info                            : Advanced Video Coding
  11. Duration                                 : 1 h 55 min
  12. Bit rate                                 : 2 500 kb/s
  13. Width                                    : 1 920 pixels
  14. Height                                   : 1 080 pixels
  15. Display aspect ratio                     : 16:9
  16. Frame rate mode                          : Constant
  17. Frame rate                               : 23.976 (23976/1000) FPS
  18. Color space                              : YUV
  19. Chroma subsampling                       : 4:2:0
  20. Bit depth                                : 8 bits
  21. Scan type                                : Progressive
  22. Bits/(Pixel*Frame)                       : 0.050
  23. Stream size                              : 2.01 GiB (92%)
  24. Writing library                          : x264 core 152 r2851M ba24899
  25. Encoding settings                        : cabac=1 / ref=4 / deblock=1:-1:-1 / analyse=0x3:0x113 / me=umh / subme=9 / psy=1 / psy_rd=1.00:0.15 / mixed_ref=1 / me_range=24 / chroma_me=1 / trellis=2 / 8x8dct=1 / cqm=0 / deadzone=21,11 / fast_pskip=1 / chroma_qp_offset=-3 / threads=16 / lookahead_threads=4 / sliced_threads=0 / nr=0 / decimate=1 / interlaced=0 / bluray_compat=0 / constrained_intra=0 / bframes=3 / b_pyramid=2 / b_adapt=2 / b_bias=0 / direct=3 / weightb=1 / open_gop=0 / weightp=2 / keyint=250 / keyint_min=25 / scenecut=40 / intra_refresh=0 / rc_lookahead=50 / rc=2pass / mbtree=1 / bitrate=2500 / ratetol=1.0 / qcomp=0.60 / qpmin=0 / qpmax=69 / qpstep=4 / cplxblur=20.0 / qblur=0.5 / vbv_maxrate=31250 / vbv_bufsize=31250 / nal_hrd=none / filler=0 / ip_ratio=1.40 / aq=3:1.00
  26. Encoded date                             : UTC 2019-11-09 05:33:01
  27. Tagged date                              : UTC 2019-11-09 05:33:01
  28. Codec configuration box                  : avcC

  29. Audio
  30. ID                                       : 2
  31. Format                                   : AAC LC
  32. Format/Info                              : Advanced Audio Codec Low Complexity
  33. Codec ID                                 : mp4a-40-2
  34. Duration                                 : 1 h 55 min
  35. Duration_LastFrame                       : -11 ms
  36. Bit rate mode                            : Constant
  37. Bit rate                                 : 224 kb/s
  38. Channel(s)                               : 6 channels
  39. Channel layout                           : C L R Ls Rs LFE
  40. Sampling rate                            : 48.0 kHz
  41. Frame rate                               : 46.875 FPS (1024 SPF)
  42. Compression mode                         : Lossy
  43. Stream size                              : 185 MiB (8%)
  44. Language                                 : English
  45. Default                                  : Yes
  46. Alternate group                          : 1
  47. Encoded date                             : UTC 2019-11-09 05:33:01
  48. Tagged date                              : UTC 2019-11-09 05:33:01
复制代码

高校奇女子 What.Goes.Up.2009.1080p.WEBRip.x264-RARBG 2.20GB-2.png 高校奇女子 What.Goes.Up.2009.1080p.WEBRip.x264-RARBG 2.20GB-3.png 高校奇女子 What.Goes.Up.2009.1080p.WEBRip.x264-RARBG 2.20GB-4.png







VIP会员免费任意下载本站所有资源!---点击开通
回复

使用道具 举报

懒得打字嘛,点击右侧快捷回复 【右侧内容,后台自定义】
您需要登录后才可以回帖 登录 | 立即注册

本版积分规则

QQ|Archiver|手机版|小黑屋| 中国高清网 |网站地图

GMT+8, 2019-11-20 09:02 , Processed in 0.251495 second(s), 37 queries .

Powered by HDchina X3.4

Copyright 2017-2019©HDchina.All right reserved

返回顶部 联系我们