查看: 77|回复: 1

[犯罪片] 野猫之性感猎人 Stray.Cat.Rock.Sex.Hunter.1970.JAPANESE.1080p.BluRay.x264.DTS-FGT 7.74GB

[复制链接]

 成长值: 3210

级别:资源管理组

注册时间
2017-10-20
最后登录
2019-11-20
听众
1
收听
0
主题
87254
蓝光币
63212 枚
贡献
11613 点
发表于 2019-11-10 22:57:04 | 显示全部楼层 |阅读模式
野猫之性感猎人 Stray.Cat.Rock.Sex.Hunter.1970.JAPANESE.1080p.BluRay.x264.DTS-FGT 7.74GB-1.png

译  名 野猫之性感猎人 / Nora-neko rokku: Sekkusu hanta / Stray Cat Rock:Sex Hunter / 野猫摇滚:性感猎人 / 野良猫洛克:性感猎人
片  名 野良猫ロック セックスハンター
年  代 1970
产  地 日本
类  别 犯罪
语  言 日语
上映日期 1970-09-01
IMDb评分  6.4/10 from 628 users
IMDb链接  https://www.imdb.com/title/tt0223783
豆瓣评分 6.5/10 from 110 users
豆瓣链接 https://movie.douban.com/subject/1858721/
片  长 Japan: 85 分钟
导  演 长谷部安春
编  剧 大和屋竺 / 藤井鹰史
主  演 梶芽衣子
       安冈力也
       藤龙也
       冈崎二朗
       英美枝
       小磯マリ
       青木伸子


标  签 日本 | 梶芽衣子 | 长谷部安春 | 日本电影 | 1970 | 犯罪 | 1970s | 長谷部安春

简  介  

  町立川曾为美军基地地点地,当地人一方面欧化严重,一方面深受创伤。少女真子(梶芽衣子 饰)与一群蜜斯妹全日游荡陌头,无所作为;而以“男爵”(藤龙也 饰)为首的“老鹰”青年组则驾驶着美军军用吉普横冲直撞,招摇过市。某天,少女组中的女孩玛丽抛弃“老鹰”中的男友,转而爱上一个日美混血儿。具有着不胜曩昔的男爵命令驱逐镇上一切的混血儿,一场清除活动囊括而来。
  来自横滨的混血青年数马(安冈力也 饰)到町立川寻觅妹妹小惠,他的歌声传染了心里孤独的真子,而其身份又令男爵恨之入骨。原底细安无事的两组人马一触即发……
  1. Video
  2. ID                                       : 1
  3. Format                                   : AVC
  4. Format/Info                              : Advanced Video Codec
  5. Format profile                           : High@L4
  6. Format settings                          : CABAC / 4 Ref Frames
  7. Format settings, CABAC                   : Yes
  8. Format settings, Reference frames        : 4 frames
  9. Codec ID                                 : V_MPEG4/ISO/AVC
  10. Duration                                 : 1 h 25 min
  11. Bit rate                                 : 11.5 Mb/s
  12. Width                                    : 1 918 pixels
  13. Height                                   : 770 pixels
  14. Display aspect ratio                     : 2.491
  15. Frame rate mode                          : Constant
  16. Frame rate                               : 23.976 (24000/1001) FPS
  17. Color space                              : YUV
  18. Chroma subsampling                       : 4:2:0
  19. Bit depth                                : 8 bits
  20. Scan type                                : Progressive
  21. Bits/(Pixel*Frame)                       : 0.325
  22. Stream size                              : 6.84 GiB (88%)
  23. Title                                    : Stray.Cat.Rock.Sex.Hunter.1970.JAPANESE.1080p.BluRay.x264.DTS-FGT
  24. Writing library                          : x264 core 148 r2795M aaa9aa8
  25. Encoding settings                        : cabac=1 / ref=4 / deblock=1:-2:-2 / analyse=0x3:0x113 / me=umh / subme=9 / psy=1 / psy_rd=1.00:0.15 / mixed_ref=1 / me_range=16 / chroma_me=1 / trellis=2 / 8x8dct=1 / cqm=0 / deadzone=21,11 / fast_pskip=1 / chroma_qp_offset=-3 / threads=24 / lookahead_threads=3 / sliced_threads=0 / nr=0 / decimate=1 / interlaced=0 / bluray_compat=0 / constrained_intra=0 / bframes=3 / b_pyramid=2 / b_adapt=1 / b_bias=0 / direct=3 / weightb=1 / open_gop=0 / weightp=2 / keyint=250 / keyint_min=25 / scenecut=40 / intra_refresh=0 / rc_lookahead=50 / rc=2pass / mbtree=1 / bitrate=11500 / ratetol=1.0 / qcomp=0.60 / qpmin=0 / qpmax=69 / qpstep=4 / cplxblur=20.0 / qblur=0.5 / vbv_maxrate=31250 / vbv_bufsize=31250 / nal_hrd=none / filler=0 / ip_ratio=1.40 / aq=1:1.00
  26. Language                                 : Japanese
  27. Default                                  : Yes
  28. Forced                                   : No

  29. Audio
  30. ID                                       : 2
  31. Format                                   : DTS
  32. Format/Info                              : Digital Theater Systems
  33. Codec ID                                 : A_DTS
  34. Duration                                 : 1 h 25 min
  35. Bit rate mode                            : Constant
  36. Bit rate                                 : 1 509 kb/s
  37. Channel(s)                               : 1 channel
  38. Channel layout                           : C
  39. Sampling rate                            : 48.0 kHz
  40. Frame rate                               : 93.750 FPS (512 SPF)
  41. Bit depth                                : 16 bits
  42. Compression mode                         : Lossy
  43. Stream size                              : 919 MiB (12%)
  44. Title                                    : Stray.Cat.Rock.Sex.Hunter.1970.JAPANESE.1080p.BluRay.x264.DTS-FGT
  45. Language                                 : Japanese
  46. Default                                  : Yes
  47. Forced                                   : No

  48. Text
  49. ID                                       : 3
  50. Format                                   : UTF-8
  51. Codec ID                                 : S_TEXT/UTF8
  52. Codec ID/Info                            : UTF-8 Plain Text
  53. Duration                                 : 1 h 24 min
  54. Bit rate                                 : 28 b/s
  55. Count of elements                        : 664
  56. Stream size                              : 17.5 KiB (0%)
  57. Language                                 : English
  58. Default                                  : Yes
  59. Forced                                   : No

  60. Menu
  61. 00:00:00.000                             : en:Chapter 1
  62. 00:09:26.148                             : en:Chapter 2
  63. 00:15:28.385                             : en:Chapter 3
  64. 00:21:09.268                             : en:Chapter 4
  65. 00:29:21.926                             : en:Chapter 5
  66. 00:36:50.875                             : en:Chapter 6
  67. 00:42:38.597                             : en:Chapter 7
  68. 00:48:00.168                             : en:Chapter 8
  69. 00:56:59.666                             : en:Chapter 9
  70. 01:04:03.130                             : en:Chapter 10
  71. 01:10:37.691                             : en:Chapter 11
  72. 01:17:33.231                             : en:Chapter 12
复制代码

野猫之性感猎人 Stray.Cat.Rock.Sex.Hunter.1970.JAPANESE.1080p.BluRay.x264.DTS-FGT 7.74GB-2.png 野猫之性感猎人 Stray.Cat.Rock.Sex.Hunter.1970.JAPANESE.1080p.BluRay.x264.DTS-FGT 7.74GB-3.png 野猫之性感猎人 Stray.Cat.Rock.Sex.Hunter.1970.JAPANESE.1080p.BluRay.x264.DTS-FGT 7.74GB-4.png







VIP会员免费任意下载本站所有资源!---点击开通
回复

使用道具 举报

级别:普通观众 Lv.2

注册时间
2019-11-4
最后登录
2019-11-20
听众
0
收听
0
主题
0
蓝光币
18 枚
贡献
0 点
发表于 2019-11-11 06:52:11 | 显示全部楼层
楼主发贴辛苦了,谢谢楼主分享!我觉得中国高清电影网是注册对了!
VIP会员免费任意下载本站所有资源!---点击开通
回复

使用道具 举报

懒得打字嘛,点击右侧快捷回复 【右侧内容,后台自定义】
您需要登录后才可以回帖 登录 | 立即注册

本版积分规则

QQ|Archiver|手机版|小黑屋| 中国高清网 |网站地图

GMT+8, 2019-11-20 22:07 , Processed in 0.224926 second(s), 37 queries .

Powered by HDchina X3.4

Copyright 2017-2019©HDchina.All right reserved

返回顶部 联系我们