查看: 8|回复: 0

[纪录片] 里奇希尔/富丘镇 Rich.Hill.2014.1080p.AMZN.WEBRip.DD5.1.x264-QOQ 5.84GB

[复制链接]

 成长值: 3140

级别:资源管理组

注册时间
2017-10-20
最后登录
2019-11-11
听众
1
收听
0
主题
86761
蓝光币
61615 枚
贡献
11119 点
发表于 3 天前 | 显示全部楼层 |阅读模式
里奇希尔/富丘镇 Rich.Hill.2014.1080p.AMZN.WEBRip.DD5.1.x264-QOQ 5.84GB-1.png

译  名 里奇希尔 / 富丘镇 / 富山镇
片  名 Rich Hill
年  代 2014
产  地 美国
类  别 记载片
语  言 英语
上映日期 2014-01-19(圣丹斯电影节) / 2014-08-01(美国)
IMDb评分  7.2/10 from 2124 users
IMDb链接  https://www.imdb.com/title/tt2548738
豆瓣评分 7.7/10 from 163 users
豆瓣链接 https://movie.douban.com/subject/25785120/
片  长 91分钟
导  演 Tracy Droz Tragos / Andrew Droz Palermo
主  演 Alyssa Jewell
       Andrew Jewell
       Elizabeth Jewell


标  签 记载片 | 美国 | 2014 | 青春 | 紀錄片 | 青少年 | Documentary | 2010s

简  介  

  富丘镇位于美国密苏里州,生齿1396,这里很轻易被交往于公路间的车辆所疏忽。影片聚焦三名富丘镇男孩,虽然小镇与世隔断,但他们的生活与同龄人并无分歧,他们渴望幸运完竣的家庭生活,在童年与青春期之间缓慢而剧烈的过渡着。v

获奖情况  

  第30届圣丹斯电影节(2014)
  评审团大奖 记载片 特蕾西·德罗兹·巴勒莫 / 安德鲁·德罗兹·巴勒莫
  1. Video
  2. ID                                       : 1
  3. Format                                   : AVC
  4. Format/Info                              : Advanced Video Codec
  5. Format profile                           : High@L4
  6. Format settings                          : CABAC / 4 Ref Frames
  7. Format settings, CABAC                   : Yes
  8. Format settings, Reference frames        : 4 frames
  9. Codec ID                                 : V_MPEG4/ISO/AVC
  10. Duration                                 : 1 h 32 min
  11. Bit rate                                 : 8 365 kb/s
  12. Width                                    : 1 920 pixels
  13. Height                                   : 1 080 pixels
  14. Display aspect ratio                     : 16:9
  15. Frame rate mode                          : Constant
  16. Frame rate                               : 23.976 (24000/1001) FPS
  17. Color space                              : YUV
  18. Chroma subsampling                       : 4:2:0
  19. Bit depth                                : 8 bits
  20. Scan type                                : Progressive
  21. Bits/(Pixel*Frame)                       : 0.168
  22. Stream size                              : 5.42 GiB (93%)
  23. Default                                  : Yes
  24. Forced                                   : No
  25. Color range                              : Limited
  26. Color primaries                          : BT.709
  27. Transfer characteristics                 : BT.709
  28. Matrix coefficients                      : BT.709

  29. Audio
  30. ID                                       : 2
  31. Format                                   : E-AC-3
  32. Format/Info                              : Enhanced AC-3
  33. Commercial name                          : Dolby Digital Plus
  34. Codec ID                                 : A_EAC3
  35. Duration                                 : 1 h 32 min
  36. Bit rate mode                            : Constant
  37. Bit rate                                 : 640 kb/s
  38. Channel(s)                               : 6 channels
  39. Channel layout                           : L R C LFE Ls Rs
  40. Sampling rate                            : 48.0 kHz
  41. Frame rate                               : 31.250 FPS (1536 SPF)
  42. Compression mode                         : Lossy
  43. Stream size                              : 425 MiB (7%)
  44. Language                                 : English
  45. Service kind                             : Complete Main
  46. Default                                  : Yes
  47. Forced                                   : No

  48. Text
  49. ID                                       : 3
  50. Format                                   : UTF-8
  51. Codec ID                                 : S_TEXT/UTF8
  52. Codec ID/Info                            : UTF-8 Plain Text
  53. Duration                                 : 1 h 31 min
  54. Bit rate                                 : 49 b/s
  55. Count of elements                        : 1278
  56. Stream size                              : 33.3 KiB (0%)
  57. Title                                    : SDH
  58. Language                                 : English
  59. Default                                  : No
  60. Forced                                   : No
复制代码

里奇希尔/富丘镇 Rich.Hill.2014.1080p.AMZN.WEBRip.DD5.1.x264-QOQ 5.84GB-2.png 里奇希尔/富丘镇 Rich.Hill.2014.1080p.AMZN.WEBRip.DD5.1.x264-QOQ 5.84GB-3.png 里奇希尔/富丘镇 Rich.Hill.2014.1080p.AMZN.WEBRip.DD5.1.x264-QOQ 5.84GB-4.png







VIP会员免费任意下载本站所有资源!---点击开通
回复

使用道具 举报

懒得打字嘛,点击右侧快捷回复 【右侧内容,后台自定义】
您需要登录后才可以回帖 登录 | 立即注册

本版积分规则

QQ|Archiver|手机版|小黑屋| 中国高清网 |网站地图 

GMT+8, 2019-11-13 17:51 , Processed in 0.235208 second(s), 37 queries .

Powered by HDchina X3.4

Copyright 2017-2019©HDchina.All right reserved

返回顶部 联系我们