查看: 6|回复: 0

[剧情片] 先贤之信 Faith.of.Our.Fathers.2015.1080p.AMZN.WEBRip.DDP5.1.x264-ABM 6.48GB

[复制链接]

 成长值: 3230

级别:资源管理组

注册时间
2017-10-20
最后登录
2019-11-21
听众
1
收听
0
主题
87390
蓝光币
63616 枚
贡献
11749 点
发表于 2019-11-10 18:34:14 | 显示全部楼层 |阅读模式
先贤之信 Faith.of.Our.Fathers.2015.1080p.AMZN.WEBRip.DDP5.1.x264-ABM 6.48GB-1.png

译  名 先贤之信
片  名 Faith of Our Fathers
年  代 2015
产  地 美国
类  别 剧情
语  言 英语
上映日期 2009-09-25
IMDb评分  3.6/10 from 554 users
IMDb链接  https://www.imdb.com/title/tt1322393
豆瓣评分 0/10 from 0 users
豆瓣链接 https://movie.douban.com/subject/3334811/
片  长 96分钟
导  演 Carey Scott
编  剧 Carey Scott
主  演 Stephen Baldwin
       Kevin Downes
       David A.R. White
       Ryan Doom
       Rebecca St. James
       Candace Cameron Bure


标  签 美国 | 2015

简  介  

  两名美国青年踏上越南之旅,按着一封父辈的信的指引去寻觅他们留下的萍踪
  1. Video
  2. ID                                       : 1
  3. Format                                   : AVC
  4. Format/Info                              : Advanced Video Codec
  5. Format profile                           : High@L4
  6. Format settings                          : CABAC / 4 Ref Frames
  7. Format settings, CABAC                   : Yes
  8. Format settings, Reference frames        : 4 frames
  9. Codec ID                                 : V_MPEG4/ISO/AVC
  10. Duration                                 : 1 h 36 min
  11. Bit rate mode                            : Variable
  12. Bit rate                                 : 8 967 kb/s
  13. Maximum bit rate                         : 15.0 Mb/s
  14. Width                                    : 1 920 pixels
  15. Height                                   : 1 080 pixels
  16. Display aspect ratio                     : 16:9
  17. Frame rate mode                          : Constant
  18. Frame rate                               : 23.976 (24000/1001) FPS
  19. Color space                              : YUV
  20. Chroma subsampling                       : 4:2:0
  21. Bit depth                                : 8 bits
  22. Scan type                                : Progressive
  23. Bits/(Pixel*Frame)                       : 0.180
  24. Stream size                              : 6.05 GiB (93%)
  25. Default                                  : Yes
  26. Forced                                   : No
  27. Color range                              : Limited
  28. Color primaries                          : BT.709
  29. Transfer characteristics                 : BT.709
  30. Matrix coefficients                      : BT.709

  31. Audio
  32. ID                                       : 2
  33. Format                                   : E-AC-3
  34. Format/Info                              : Enhanced AC-3
  35. Commercial name                          : Dolby Digital Plus
  36. Codec ID                                 : A_EAC3
  37. Duration                                 : 1 h 36 min
  38. Bit rate mode                            : Constant
  39. Bit rate                                 : 640 kb/s
  40. Channel(s)                               : 6 channels
  41. Channel layout                           : L R C LFE Ls Rs
  42. Sampling rate                            : 48.0 kHz
  43. Frame rate                               : 31.250 FPS (1536 SPF)
  44. Compression mode                         : Lossy
  45. Delay relative to video                  : 25 ms
  46. Stream size                              : 442 MiB (7%)
  47. Language                                 : English
  48. Service kind                             : Complete Main
  49. Default                                  : Yes
  50. Forced                                   : No

  51. Text
  52. ID                                       : 3
  53. Format                                   : UTF-8
  54. Codec ID                                 : S_TEXT/UTF8
  55. Codec ID/Info                            : UTF-8 Plain Text
  56. Duration                                 : 1 h 31 min
  57. Bit rate                                 : 56 b/s
  58. Count of elements                        : 1201
  59. Stream size                              : 38.1 KiB (0%)
  60. Language                                 : English
  61. Default                                  : No
  62. Forced                                   : No
复制代码

先贤之信 Faith.of.Our.Fathers.2015.1080p.AMZN.WEBRip.DDP5.1.x264-ABM 6.48GB-2.png 先贤之信 Faith.of.Our.Fathers.2015.1080p.AMZN.WEBRip.DDP5.1.x264-ABM 6.48GB-3.png 先贤之信 Faith.of.Our.Fathers.2015.1080p.AMZN.WEBRip.DDP5.1.x264-ABM 6.48GB-4.png 先贤之信 Faith.of.Our.Fathers.2015.1080p.AMZN.WEBRip.DDP5.1.x264-ABM 6.48GB-5.png 先贤之信 Faith.of.Our.Fathers.2015.1080p.AMZN.WEBRip.DDP5.1.x264-ABM 6.48GB-6.png 先贤之信 Faith.of.Our.Fathers.2015.1080p.AMZN.WEBRip.DDP5.1.x264-ABM 6.48GB-7.png







VIP会员免费任意下载本站所有资源!---点击开通
回复

使用道具 举报

懒得打字嘛,点击右侧快捷回复 【右侧内容,后台自定义】
您需要登录后才可以回帖 登录 | 立即注册

本版积分规则

QQ|Archiver|手机版|小黑屋| 中国高清网 |网站地图

GMT+8, 2019-11-22 05:45 , Processed in 0.218322 second(s), 37 queries .

Powered by HDchina X3.4

Copyright 2017-2019©HDchina.All right reserved

返回顶部 联系我们