查看: 70|回复: 0

[恐怖片] 剥皮女魔 Skinner.1993.1080p.BluRay.x264-SPOOKS 6.56GB

[复制链接]

 成长值: 3430

级别:资源管理组

注册时间
2017-10-20
最后登录
2019-12-11
听众
1
收听
0
主题
88414
蓝光币
70252 枚
贡献
12776 点
发表于 2019-11-10 18:28:10 | 显示全部楼层 |阅读模式
剥皮女魔 Skinner.1993.1080p.BluRay.x264-SPOOKS 6.56GB-1.png

译  名 剥皮女魔
片  名 Skinner
年  代 1993
产  地 美国
类  别 可骇
语  言 英语
上映日期 1995-07-12
IMDb评分  5.0/10 from 500 users
IMDb链接  http://www.imdb.com/title/tt0114466
豆瓣评分 0/10 from 0 users
豆瓣链接 https://movie.douban.com/subject/1298775/
片  长 90分钟
导  演 Ivan Nagy (I)
编  剧 Paul Hart-Wilden
主  演 Traci Lords
       Richard SchiffDavid
       Ted Raimi


标  签 可骇 | 血腥 | 变态 | 剥皮女魔 | 杀戮 | 美国电影 | VCD | 1

简  介  

  海蒂被一残暴的神经病患丹尼斯毁容,他专门在城市里的街道及河滨猎取不知情的妓女,海蒂一心复仇,无法计齐截次又一次地失利。正当另一位女子凯莉被丹尼斯抓走之际,海蒂及凯莉的丈夫杰夫实时在一间烧毁的仓库找到了他们,就在丹尼斯预备切割凯莉时,海蒂牺牲了自己...。
  1. Video
  2. ID                                       : 1
  3. Format                                   : AVC
  4. Format/Info                              : Advanced Video Codec
  5. Format profile                           : High@L4
  6. Format settings                          : CABAC / 4 Ref Frames
  7. Format settings, CABAC                   : Yes
  8. Format settings, Reference frames        : 4 frames
  9. Codec ID                                 : V_MPEG4/ISO/AVC
  10. Duration                                 : 1 h 28 min
  11. Bit rate                                 : 10.1 Mb/s
  12. Width                                    : 1 920 pixels
  13. Height                                   : 1 080 pixels
  14. Display aspect ratio                     : 16:9
  15. Frame rate mode                          : Constant
  16. Frame rate                               : 23.976 (24000/1001) FPS
  17. Color space                              : YUV
  18. Chroma subsampling                       : 4:2:0
  19. Bit depth                                : 8 bits
  20. Scan type                                : Progressive
  21. Bits/(Pixel*Frame)                       : 0.203
  22. Stream size                              : 6.21 GiB (95%)
  23. Writing library                          : x264 core 158 r2988 7817004
  24. Encoding settings                        : cabac=1 / ref=4 / deblock=1:-3:-3 / analyse=0x3:0x133 / me=umh / subme=9 / psy=1 / psy_rd=1.00:0.00 / mixed_ref=1 / me_range=24 / chroma_me=1 / trellis=1 / 8x8dct=1 / cqm=0 / deadzone=21,11 / fast_pskip=0 / chroma_qp_offset=-2 / threads=24 / lookahead_threads=4 / sliced_threads=0 / nr=0 / decimate=1 / interlaced=0 / bluray_compat=0 / constrained_intra=0 / bframes=8 / b_pyramid=2 / b_adapt=2 / b_bias=0 / direct=3 / weightb=1 / open_gop=0 / weightp=2 / keyint=250 / keyint_min=23 / scenecut=40 / intra_refresh=0 / rc_lookahead=60 / rc=2pass / mbtree=1 / bitrate=10076 / ratetol=1.0 / qcomp=0.60 / qpmin=0 / qpmax=69 / qpstep=4 / cplxblur=20.0 / qblur=0.5 / vbv_maxrate=62500 / vbv_bufsize=78125 / nal_hrd=none / filler=0 / ip_ratio=1.40 / aq=1:1.00
  25. Default                                  : Yes
  26. Forced                                   : No

  27. Audio
  28. ID                                       : 2
  29. Format                                   : FLAC
  30. Format/Info                              : Free Lossless Audio Codec
  31. Codec ID                                 : A_FLAC
  32. Duration                                 : 1 h 28 min
  33. Bit rate mode                            : Variable
  34. Bit rate                                 : 556 kb/s
  35. Channel(s)                               : 2 channels
  36. Channel layout                           : L R
  37. Sampling rate                            : 48.0 kHz
  38. Frame rate                               : 10.417 FPS (4608 SPF)
  39. Bit depth                                : 16 bits
  40. Compression mode                         : Lossless
  41. Stream size                              : 351 MiB (5%)
  42. Writing library                          : Lavf58.29.100
  43. Language                                 : English
  44. Default                                  : Yes
  45. Forced                                   : No

  46. Menu
  47. 00:00:00.000                             : en:Chapter 01
  48. 00:11:20.430                             : en:Chapter 02
  49. 00:23:50.387                             : en:Chapter 03
  50. 00:37:53.062                             : en:Chapter 04
  51. 00:54:25.971                             : en:Chapter 05
  52. 01:06:55.220                             : en:Chapter 06
  53. 01:16:21.076                             : en:Chapter 07
  54. 01:25:29.124                             : en:Chapter 08
复制代码

剥皮女魔 Skinner.1993.1080p.BluRay.x264-SPOOKS 6.56GB-2.png







VIP会员免费任意下载本站所有资源!---点击开通
回复

使用道具 举报

懒得打字嘛,点击右侧快捷回复 【右侧内容,后台自定义】
您需要登录后才可以回帖 登录 | 立即注册

本版积分规则

QQ|Archiver|手机版|小黑屋| 中国高清网 |网站地图

GMT+8, 2019-12-12 10:57 , Processed in 0.223482 second(s), 37 queries .

Powered by HDchina X3.4

Copyright 2017-2019©HDchina.All right reserved

返回顶部 联系我们