查看: 41|回复: 0

[剧情片] 别告诉她/不要告诉她 The.Farewell.2019.CHINESE.1080p.BluRay.x264.DTS-HD.MA.5.1-FGT 8.68GB

[复制链接]

 成长值: 3160

级别:资源管理组

注册时间
2017-10-20
最后登录
2019-11-11
听众
1
收听
0
主题
86761
蓝光币
61851 枚
贡献
11119 点
发表于 7 天前 | 显示全部楼层 |阅读模式
别告诉她/不要告诉她 The.Farewell.2019.CHINESE.1080p.BluRay.x264.DTS-HD.MA.5.1-FGT 8.68GB-1.png

译  名 别告诉她 / 不要告诉她 / 别对她说 / 离别婚礼
片  名 The Farewell
年  代 2019
产  地 美国
类  别 剧情 / 笑剧
语  言 英语 / 汉语普通话 / 日语
上映日期 2019-01-25(圣丹斯电影节) / 2019-07-12(美国) / 2019-11-22(中国大陆)
IMDb评分  8.1/10 from 8477 users
IMDb链接  https://www.imdb.com/title/tt8637428
豆瓣评分 8.0/10 from 4000 users
豆瓣链接 https://movie.douban.com/subject/30390144/
片  长 98分钟
导  演 王子逸 Lulu Wang
编  剧 王子逸 Lulu Wang
主  演 奥卡菲娜 Awkwafina
       马志 Tzi Ma
       林晓杰 Diana Lin
       赵淑珍 Shuzhen Zhao
       姜永波 Yongbo Jiang
       水原碧衣 Aoi Mizuhara
       章静 Jing Zhang
       吉尔·佩雷斯-亚伯拉罕 Gil Perez-Abraham
       刘敬宇 Jim Liu


标  签 家庭 | 美国 | 中国 | 2019 | 剧情 | 笑剧 | 圣丹斯电影节 | 自力

简  介  

  影片报告一个华人家庭的奶奶被诊断罹癌,但家人挑选隐瞒奶奶,假借一场婚礼的名义让一切家人回家见奶奶最初一面,但在纽约长大的碧莉(奥卡菲娜饰演)以为晓得自己病况是奶奶的人权,是以在华人家庭中上演一场中西文化抵触,一部寻根家庭笑剧。故事改编自华裔女导演王子逸自己的家庭故事,她也因本片被《综艺》杂志评选2019年必关注导演之一。

获奖情况  

  第35届圣丹斯电影节(2019)
  评审团大奖 剧情片(提名) 王子逸

  第29届哥谭自力电影奖(2019)
  最好影片(提名)
  最好女演员(提名) 奥卡菲娜
  最好剧本(提名) 王子逸
  1. Video
  2. ID                                       : 1
  3. Format                                   : AVC
  4. Format/Info                              : Advanced Video Codec
  5. Format profile                           : High@L4
  6. Format settings                          : CABAC / 5 Ref Frames
  7. Format settings, CABAC                   : Yes
  8. Format settings, Reference frames        : 5 frames
  9. Codec ID                                 : V_MPEG4/ISO/AVC
  10. Duration                                 : 1 h 39 min
  11. Bit rate                                 : 9 445 kb/s
  12. Width                                    : 1 920 pixels
  13. Height                                   : 808 pixels
  14. Display aspect ratio                     : 2.40:1
  15. Frame rate mode                          : Constant
  16. Frame rate                               : 23.976 (24000/1001) FPS
  17. Color space                              : YUV
  18. Chroma subsampling                       : 4:2:0
  19. Bit depth                                : 8 bits
  20. Scan type                                : Progressive
  21. Bits/(Pixel*Frame)                       : 0.254
  22. Stream size                              : 6.59 GiB (76%)
  23. Title                                    : The.Farewell.2019.CHINESE.1080p.BluRay.x264.DTS-HD.MA.5.1-FGT
  24. Writing library                          : x264 core 157 r2969 d4099dd
  25. Encoding settings                        : cabac=1 / ref=5 / deblock=1:1:1 / analyse=0x3:0x133 / me=umh / subme=8 / psy=1 / psy_rd=1.00:0.00 / mixed_ref=1 / me_range=16 / chroma_me=1 / trellis=1 / 8x8dct=1 / cqm=0 / deadzone=21,11 / fast_pskip=0 / chroma_qp_offset=-2 / threads=12 / lookahead_threads=2 / sliced_threads=0 / nr=0 / decimate=1 / interlaced=0 / bluray_compat=0 / constrained_intra=0 / bframes=3 / b_pyramid=2 / b_adapt=2 / b_bias=0 / direct=3 / weightb=1 / open_gop=0 / weightp=2 / keyint=250 / keyint_min=23 / scenecut=40 / intra_refresh=0 / rc_lookahead=50 / rc=2pass / mbtree=1 / bitrate=9445 / ratetol=1.0 / qcomp=0.60 / qpmin=0 / qpmax=69 / qpstep=4 / cplxblur=20.0 / qblur=0.5 / ip_ratio=1.40 / aq=1:1.00
  26. Language                                 : Chinese
  27. Default                                  : Yes
  28. Forced                                   : No

  29. Audio
  30. ID                                       : 2
  31. Format                                   : DTS XLL
  32. Format/Info                              : Digital Theater Systems
  33. Commercial name                          : DTS-HD Master Audio
  34. Codec ID                                 : A_DTS
  35. Duration                                 : 1 h 39 min
  36. Bit rate mode                            : Variable
  37. Bit rate                                 : 2 975 kb/s
  38. Channel(s)                               : 6 channels
  39. Channel layout                           : C L R Ls Rs LFE
  40. Sampling rate                            : 48.0 kHz
  41. Frame rate                               : 93.750 FPS (512 SPF)
  42. Bit depth                                : 24 bits
  43. Compression mode                         : Lossless
  44. Stream size                              : 2.08 GiB (24%)
  45. Title                                    : The.Farewell.2019.CHINESE.1080p.BluRay.x264.DTS-HD.MA.5.1-FGT
  46. Language                                 : Chinese
  47. Default                                  : Yes
  48. Forced                                   : No

  49. Text #1
  50. ID                                       : 3
  51. Format                                   : UTF-8
  52. Codec ID                                 : S_TEXT/UTF8
  53. Codec ID/Info                            : UTF-8 Plain Text
  54. Duration                                 : 1 h 31 min
  55. Bit rate                                 : 22 b/s
  56. Count of elements                        : 597
  57. Stream size                              : 15.4 KiB (0%)
  58. Title                                    : English-SRT
  59. Language                                 : English
  60. Default                                  : Yes
  61. Forced                                   : No

  62. Text #2
  63. ID                                       : 4
  64. Format                                   : PGS
  65. Muxing mode                              : zlib
  66. Codec ID                                 : S_HDMV/PGS
  67. Codec ID/Info                            : Picture based subtitle format used on BDs/HD-DVDs
  68. Duration                                 : 1 h 31 min
  69. Bit rate                                 : 15.4 kb/s
  70. Count of elements                        : 1237
  71. Stream size                              : 10.1 MiB (0%)
  72. Title                                    : English-PGS
  73. Language                                 : English
  74. Default                                  : No
  75. Forced                                   : No

  76. Text #3
  77. ID                                       : 5
  78. Format                                   : PGS
  79. Muxing mode                              : zlib
  80. Codec ID                                 : S_HDMV/PGS
  81. Codec ID/Info                            : Picture based subtitle format used on BDs/HD-DVDs
  82. Duration                                 : 1 h 38 min
  83. Bit rate                                 : 29.9 kb/s
  84. Count of elements                        : 2230
  85. Stream size                              : 21.2 MiB (0%)
  86. Title                                    : Spanish-PGS
  87. Language                                 : Spanish
  88. Default                                  : No
  89. Forced                                   : No

  90. Menu
  91. 00:00:00.000                             : en:Chapter 01
  92. 00:06:05.198                             : en:Chapter 02
  93. 00:12:44.180                             : en:Chapter 03
  94. 00:19:49.104                             : en:Chapter 04
  95. 00:25:18.767                             : en:Chapter 05
  96. 00:30:53.935                             : en:Chapter 06
  97. 00:35:05.228                             : en:Chapter 07
  98. 00:44:44.306                             : en:Chapter 08
  99. 00:51:28.168                             : en:Chapter 09
  100. 00:55:31.244                             : en:Chapter 10
  101. 01:03:09.368                             : en:Chapter 11
  102. 01:07:16.365                             : en:Chapter 12
  103. 01:15:48.877                             : en:Chapter 13
  104. 01:22:03.418                             : en:Chapter 14
  105. 01:27:38.670                             : en:Chapter 15
  106. 01:32:33.923                             : en:Chapter 16
复制代码

别告诉她/不要告诉她 The.Farewell.2019.CHINESE.1080p.BluRay.x264.DTS-HD.MA.5.1-FGT 8.68GB-2.png 别告诉她/不要告诉她 The.Farewell.2019.CHINESE.1080p.BluRay.x264.DTS-HD.MA.5.1-FGT 8.68GB-3.png 别告诉她/不要告诉她 The.Farewell.2019.CHINESE.1080p.BluRay.x264.DTS-HD.MA.5.1-FGT 8.68GB-4.png







VIP会员免费任意下载本站所有资源!---点击开通
回复

使用道具 举报

懒得打字嘛,点击右侧快捷回复 【右侧内容,后台自定义】
您需要登录后才可以回帖 登录 | 立即注册

本版积分规则

QQ|Archiver|手机版|小黑屋| 中国高清网 |网站地图 

GMT+8, 2019-11-15 09:57 , Processed in 0.234392 second(s), 37 queries .

Powered by HDchina X3.4

Copyright 2017-2019©HDchina.All right reserved

返回顶部 联系我们