查看: 44|回复: 2

[动作片] 空手道少年 Karate.Warrior.1987.1080p.BluRay.x264.DTS-FGT 7.76GB

[复制链接]

 成长值: 3230

级别:资源管理组

注册时间
2017-10-20
最后登录
2019-11-21
听众
1
收听
0
主题
87390
蓝光币
63614 枚
贡献
11749 点
发表于 2019-11-8 13:44:35 | 显示全部楼层 |阅读模式
白手道少年 Karate.Warrior.1987.1080p.BluRay.x264.DTS-FGT 7.76GB-1.png

译  名 白手道少年 / Fist of Power / Karate Warrior
片  名 Il Ragazzo dal kimono d'oro
年  代 1987
产  地 意大利
类  别 行动
语  言 意大利语
上映日期 1987-08-07
IMDb评分  4.5/10 from 350 users
IMDb链接  https://www.imdb.com/title/tt0166674
豆瓣评分 0/10 from 0 users
豆瓣链接 https://movie.douban.com/subject/1867020/
片  长 94 分钟
导  演 Fabrizio De Angelis
主  演 Kim Rossi Stuart
       Janet Agren
       Ken Watanabe


标  签 KimRossiStuart | 意大利 | 白手道 | 意大利电影 | 行动 | 白手道少年 | 意语片 | kimono

简  介  

  Anthony is in the Phillipines visiting his father. He inadvertently interferes with the affairs of local gangster Quino, who also happens to be a champion Karate fighter. After embarrassing Quino near a local tournament, Anthony is beaten up and left for dead. An old monk nurses Anthony back to health and teaches him the ways of martial arts so he may go back and fight Quino again.
  1. Video
  2. ID                                       : 1
  3. Format                                   : AVC
  4. Format/Info                              : Advanced Video Codec
  5. Format profile                           : High@L4
  6. Format settings                          : CABAC / 4 Ref Frames
  7. Format settings, CABAC                   : Yes
  8. Format settings, Reference frames        : 4 frames
  9. Codec ID                                 : V_MPEG4/ISO/AVC
  10. Duration                                 : 1 h 25 min
  11. Bit rate                                 : 11.5 Mb/s
  12. Width                                    : 1 920 pixels
  13. Height                                   : 1 036 pixels
  14. Display aspect ratio                     : 1.85:1
  15. Frame rate mode                          : Constant
  16. Frame rate                               : 23.976 (24000/1001) FPS
  17. Color space                              : YUV
  18. Chroma subsampling                       : 4:2:0
  19. Bit depth                                : 8 bits
  20. Scan type                                : Progressive
  21. Bits/(Pixel*Frame)                       : 0.241
  22. Stream size                              : 6.85 GiB (88%)
  23. Title                                    : Karate.Warrior.1987.1080p.BluRay.x264.DTS-FGT
  24. Writing library                          : x264 core 148 r2748 97eaef2
  25. Encoding settings                        : cabac=1 / ref=4 / deblock=1:-2:-2 / analyse=0x3:0x113 / me=umh / subme=9 / psy=1 / psy_rd=1.00:0.15 / mixed_ref=1 / me_range=16 / chroma_me=1 / trellis=2 / 8x8dct=1 / cqm=0 / deadzone=21,11 / fast_pskip=1 / chroma_qp_offset=-3 / threads=72 / lookahead_threads=3 / sliced_threads=0 / nr=0 / decimate=1 / interlaced=0 / bluray_compat=0 / constrained_intra=0 / bframes=3 / b_pyramid=2 / b_adapt=1 / b_bias=0 / direct=3 / weightb=1 / open_gop=0 / weightp=2 / keyint=250 / keyint_min=25 / scenecut=40 / intra_refresh=0 / rc_lookahead=50 / rc=2pass / mbtree=1 / bitrate=11500 / ratetol=1.0 / qcomp=0.60 / qpmin=0 / qpmax=69 / qpstep=4 / cplxblur=20.0 / qblur=0.5 / vbv_maxrate=31250 / vbv_bufsize=31250 / nal_hrd=none / filler=0 / ip_ratio=1.40 / aq=1:1.00
  26. Language                                 : English
  27. Default                                  : Yes
  28. Forced                                   : No

  29. Audio
  30. ID                                       : 2
  31. Format                                   : DTS
  32. Format/Info                              : Digital Theater Systems
  33. Codec ID                                 : A_DTS
  34. Duration                                 : 1 h 25 min
  35. Bit rate mode                            : Constant
  36. Bit rate                                 : 1 509 kb/s
  37. Channel(s)                               : 2 channels
  38. Channel layout                           : L R
  39. Sampling rate                            : 48.0 kHz
  40. Frame rate                               : 93.750 FPS (512 SPF)
  41. Bit depth                                : 16 bits
  42. Compression mode                         : Lossy
  43. Stream size                              : 921 MiB (12%)
  44. Title                                    : Karate.Warrior.1987.1080p.BluRay.x264.DTS-FGT
  45. Language                                 : English
  46. Default                                  : Yes
  47. Forced                                   : No

  48. Text
  49. ID                                       : 3
  50. Format                                   : UTF-8
  51. Codec ID                                 : S_TEXT/UTF8
  52. Codec ID/Info                            : UTF-8 Plain Text
  53. Duration                                 : 1 h 23 min
  54. Bit rate                                 : 37 b/s
  55. Count of elements                        : 851
  56. Stream size                              : 23.2 KiB (0%)
  57. Language                                 : English
  58. Default                                  : Yes
  59. Forced                                   : No

  60. Menu
  61. 00:00:00.000                             : en:Chapter 01
  62. 00:09:01.207                             : en:Chapter 02
  63. 00:18:07.503                             : en:Chapter 03
  64. 00:28:59.112                             : en:Chapter 04
  65. 00:39:29.492                             : en:Chapter 05
  66. 00:51:42.850                             : en:Chapter 06
  67. 01:02:23.365                             : en:Chapter 07
  68. 01:14:16.952                             : en:Chapter 08
复制代码

白手道少年 Karate.Warrior.1987.1080p.BluRay.x264.DTS-FGT 7.76GB-2.png 白手道少年 Karate.Warrior.1987.1080p.BluRay.x264.DTS-FGT 7.76GB-3.png 白手道少年 Karate.Warrior.1987.1080p.BluRay.x264.DTS-FGT 7.76GB-4.png







VIP会员免费任意下载本站所有资源!---点击开通
回复

使用道具 举报

级别:普通观众 Lv.2

注册时间
2019-11-2
最后登录
2019-11-21
听众
0
收听
0
主题
0
蓝光币
39 枚
贡献
0 点
发表于 2019-11-8 20:05:49 | 显示全部楼层
楼主发贴辛苦了,谢谢楼主分享!我觉得中国高清电影网是注册对了!
VIP会员免费任意下载本站所有资源!---点击开通
回复

使用道具 举报

级别:普通观众 Lv.2

注册时间
2019-3-28
最后登录
2019-11-21
听众
8
收听
0
主题
0
蓝光币
25 枚
贡献
0 点
发表于 2019-11-10 00:34:14 | 显示全部楼层

这东西我收了!谢谢楼主!中国高清电影网真好!
VIP会员免费任意下载本站所有资源!---点击开通
回复

使用道具 举报

懒得打字嘛,点击右侧快捷回复 【右侧内容,后台自定义】
您需要登录后才可以回帖 登录 | 立即注册

本版积分规则

QQ|Archiver|手机版|小黑屋| 中国高清网 |网站地图

GMT+8, 2019-11-22 04:54 , Processed in 0.244094 second(s), 37 queries .

Powered by HDchina X3.4

Copyright 2017-2019©HDchina.All right reserved

返回顶部 联系我们