查看: 14|回复: 0

[剧情片] 狮子王/狮子王真人版 The.Lion.King.2019.1080p.3D.BluRay.Half-SBS.x264.TrueHD.7.1.Atmos-FGT 20.35GB

[复制链接]

 成长值: 3210

级别:资源管理组

注册时间
2017-10-20
最后登录
2019-11-20
听众
1
收听
0
主题
87254
蓝光币
63212 枚
贡献
11613 点
发表于 2019-11-8 13:30:21 | 显示全部楼层 |阅读模式
狮子王/狮子王真人版 The.Lion.King.2019.1080p.3D.BluRay.Half-SBS.x264.TrueHD.7.1.Atmos-FGT 20.35GB-1.png

译  名 狮子王 / 狮子王真人版 / 狮子王实在版 / 狮子王真狮版
片  名 The Lion King
年  代 2019
产  地 美国
类  别 剧情 / 动画 / 冒险
语  言 英语 / 科萨语
上映日期 2019-07-12(中国大陆) / 2019-07-19(美国)
IMDb评分  7.1/10 from 104480 users
IMDb链接  http://www.imdb.com/title/tt6105098
豆瓣评分 7.4/10 from 196500 users
豆瓣链接 https://movie.douban.com/subject/26884354/
片  长 118分钟
导  演 乔恩·费儒 Jon Favreau
编  剧 杰夫·内桑森 Jeff Nathanson / 布兰达?查普曼 Brenda Chapman / 艾琳·梅琪 Irene Mecchi / 乔纳森·罗伯茨 Jonathan Roberts / 琳达·伍尔芙顿 Linda Woolverton
主  演 唐纳德·格洛弗 Donald Glover
       阿尔法·伍达德 Alfre Woodard
       詹姆斯·厄尔·琼斯 James Earl Jones
       切瓦特·埃加福特 Chiwetel Ejiofor
       科甘-迈克尔·凯 Keegan-Michael Key
       塞斯·罗根 Seth Rogen
       比利·艾希纳 Billy Eichner
       碧昂丝·诺尔斯 Beyoncé Knowles
       埃里克·安德烈 Eric André
       弗洛伦丝·卡松巴 Florence Kasumba
       约翰·卡尼 John Kani
       约翰·奥利弗 John Oliver
       艾米·塞德丽丝 Amy Sedaris


标  签 迪士尼 | 典范 | 动画 | 童年 | 美国 | 长大 | 2019 | 动物

简  介  

  非洲大草原上一轮红日冉冉升起,为高峻的乞力马扎罗山披上层金色的光纱,一切的动物涌向了同一个地方——光荣石,兴奋地期待着一个严重消息的公布:它们的国王木法沙将迎来自己的新生儿。
  这个新生儿就是小狮子辛巴,它是木法沙的法定接棒人、光荣石未来的国王。
  小狮子王辛巴在众多热情的朋友的陪伴下,不单履历了生射中最名誉的时辰,也遭受了最艰难的应战,最初终究成为了森林之王,也在循环往复生生不息的自然中体味诞生命的真义。

获奖情况  

  第5届豆瓣电影年度榜单(2018)
  最值得期待的外语电影(提名)
  1. Video
  2. ID                                       : 1
  3. Format                                   : AVC
  4. Format/Info                              : Advanced Video Codec
  5. Format profile                           : High@L4
  6. Format settings                          : CABAC / 3 Ref Frames
  7. Format settings, CABAC                   : Yes
  8. Format settings, Reference frames        : 3 frames
  9. Codec ID                                 : V_MPEG4/ISO/AVC
  10. Duration                                 : 1 h 58 min
  11. Bit rate                                 : 15.5 Mb/s
  12. Width                                    : 1 920 pixels
  13. Height                                   : 1 080 pixels
  14. Display aspect ratio                     : 16:9
  15. Frame rate mode                          : Constant
  16. Frame rate                               : 23.976 (24000/1001) FPS
  17. Color space                              : YUV
  18. Chroma subsampling                       : 4:2:0
  19. Bit depth                                : 8 bits
  20. Scan type                                : Progressive
  21. Bits/(Pixel*Frame)                       : 0.312
  22. Stream size                              : 12.7 GiB (62%)
  23. Title                                    : The.Lion.King.2019.1080p.3D.BluRay.Half-SBS.x264.TrueHD.7.1.Atmos-FGT
  24. Writing library                          : x264 core 148
  25. Encoding settings                        : cabac=1 / ref=3 / deblock=1:-1:-1 / analyse=0x3:0 / me=hex / subme=5 / psy=1 / psy_rd=1.00:0.00 / mixed_ref=0 / me_range=16 / chroma_me=1 / trellis=1 / 8x8dct=1 / cqm=0 / deadzone=21,11 / fast_pskip=0 / chroma_qp_offset=0 / threads=24 / lookahead_threads=6 / sliced_threads=0 / nr=0 / decimate=1 / interlaced=0 / bluray_compat=0 / constrained_intra=0 / bframes=2 / b_pyramid=0 / b_adapt=1 / b_bias=0 / direct=1 / weightb=0 / open_gop=0 / weightp=0 / keyint=24 / keyint_min=2 / scenecut=40 / intra_refresh=0 / rc=abr / mbtree=0 / bitrate=15500 / ratetol=1.0 / qcomp=0.60 / qpmin=0 / qpmax=69 / qpstep=4 / ip_ratio=1.40 / pb_ratio=1.30 / aq=1:1.00
  26. Default                                  : Yes
  27. Forced                                   : No
  28. Color range                              : Limited
  29. Color primaries                          : BT.709
  30. Transfer characteristics                 : BT.709
  31. Matrix coefficients                      : BT.709

  32. Audio #1
  33. ID                                       : 2
  34. Format                                   : MLP FBA 16-ch
  35. Format/Info                              : Meridian Lossless Packing FBA with 16-channel presentation
  36. Commercial name                          : Dolby TrueHD with Dolby Atmos
  37. Codec ID                                 : A_TRUEHD
  38. Duration                                 : 1 h 58 min
  39. Bit rate mode                            : Variable
  40. Bit rate                                 : 4 929 kb/s
  41. Maximum bit rate                         : 7 332 kb/s
  42. Channel(s)                               : 8 channels
  43. Channel layout                           : L R C LFE Ls Rs Lb Rb
  44. Sampling rate                            : 48.0 kHz
  45. Frame rate                               : 1 200.000 FPS (40 SPF)
  46. Compression mode                         : Lossless
  47. Stream size                              : 4.07 GiB (20%)
  48. Title                                    : The.Lion.King.2019.1080p.3D.BluRay.Half-SBS.x264.TrueHD.7.1.Atmos-FGT
  49. Language                                 : English
  50. Default                                  : Yes
  51. Forced                                   : No
  52. Number of dynamic objects                : 13
  53. Bed channel count                        : 1 channel
  54. Bed channel configuration                : LFE

  55. Audio #2
  56. ID                                       : 3
  57. Format                                   : AC-3
  58. Format/Info                              : Audio Coding 3
  59. Commercial name                          : Dolby Digital
  60. Codec ID                                 : A_AC3
  61. Duration                                 : 1 h 58 min
  62. Bit rate mode                            : Constant
  63. Bit rate                                 : 640 kb/s
  64. Channel(s)                               : 6 channels
  65. Channel layout                           : L R C LFE Ls Rs
  66. Sampling rate                            : 48.0 kHz
  67. Frame rate                               : 31.250 FPS (1536 SPF)
  68. Bit depth                                : 16 bits
  69. Compression mode                         : Lossy
  70. Stream size                              : 541 MiB (3%)
  71. Title                                    : The.Lion.King.2019.1080p.3D.BluRay.Half-SBS.x264.TrueHD.7.1.Atmos-FGT
  72. Language                                 : English
  73. Service kind                             : Complete Main
  74. Default                                  : No
  75. Forced                                   : No

  76. Audio #3
  77. ID                                       : 4
  78. Format                                   : DTS
  79. Format/Info                              : Digital Theater Systems
  80. Codec ID                                 : A_DTS
  81. Duration                                 : 1 h 58 min
  82. Bit rate mode                            : Constant
  83. Bit rate                                 : 1 509 kb/s
  84. Channel(s)                               : 6 channels
  85. Channel layout                           : C L R Ls Rs LFE
  86. Sampling rate                            : 48.0 kHz
  87. Frame rate                               : 93.750 FPS (512 SPF)
  88. Bit depth                                : 24 bits
  89. Compression mode                         : Lossy
  90. Stream size                              : 1.25 GiB (6%)
  91. Title                                    : The.Lion.King.2019.1080p.3D.BluRay.Half-SBS.x264.TrueHD.7.1.Atmos-FGT
  92. Language                                 : Spanish
  93. Default                                  : No
  94. Forced                                   : No

  95. Audio #4
  96. ID                                       : 5
  97. Format                                   : AC-3
  98. Format/Info                              : Audio Coding 3
  99. Commercial name                          : Dolby Digital
  100. Codec ID                                 : A_AC3
  101. Duration                                 : 1 h 58 min
  102. Bit rate mode                            : Constant
  103. Bit rate                                 : 320 kb/s
  104. Channel(s)                               : 2 channels
  105. Channel layout                           : L R
  106. Sampling rate                            : 48.0 kHz
  107. Frame rate                               : 31.250 FPS (1536 SPF)
  108. Bit depth                                : 16 bits
  109. Compression mode                         : Lossy
  110. Stream size                              : 271 MiB (1%)
  111. Title                                    : The.Lion.King.2019.1080p.3D.BluRay.Half-SBS.x264.TrueHD.7.1.Atmos-FGT
  112. Language                                 : English
  113. Service kind                             : Complete Main
  114. Default                                  : No
  115. Forced                                   : No

  116. Audio #5
  117. ID                                       : 6
  118. Format                                   : E-AC-3
  119. Format/Info                              : Enhanced AC-3
  120. Commercial name                          : Dolby Digital Plus
  121. Format profile                           : Blu-ray Disc
  122. Codec ID                                 : A_EAC3
  123. Duration                                 : 1 h 58 min
  124. Bit rate mode                            : Constant
  125. Bit rate                                 : 896 kb/s
  126. Channel(s)                               : 8 channels
  127. Channel layout                           : L R C LFE Ls Rs Lb Rb
  128. Sampling rate                            : 48.0 kHz
  129. Frame rate                               : 31.250 FPS (1536 SPF)
  130. Compression mode                         : Lossy
  131. Stream size                              : 758 MiB (4%)
  132. Title                                    : The.Lion.King.2019.1080p.3D.BluRay.Half-SBS.x264.TrueHD.7.1.Atmos-FGT
  133. Language                                 : French
  134. Service kind                             : Complete Main
  135. Default                                  : No
  136. Forced                                   : No

  137. Audio #6
  138. ID                                       : 7
  139. Format                                   : E-AC-3
  140. Format/Info                              : Enhanced AC-3
  141. Commercial name                          : Dolby Digital Plus
  142. Format profile                           : Blu-ray Disc
  143. Codec ID                                 : A_EAC3
  144. Duration                                 : 1 h 58 min
  145. Bit rate mode                            : Constant
  146. Bit rate                                 : 896 kb/s
  147. Channel(s)                               : 8 channels
  148. Channel layout                           : L R C LFE Ls Rs Lb Rb
  149. Sampling rate                            : 48.0 kHz
  150. Frame rate                               : 31.250 FPS (1536 SPF)
  151. Compression mode                         : Lossy
  152. Stream size                              : 758 MiB (4%)
  153. Title                                    : The.Lion.King.2019.1080p.3D.BluRay.Half-SBS.x264.TrueHD.7.1.Atmos-FGT
  154. Language                                 : German
  155. Service kind                             : Complete Main
  156. Default                                  : No
  157. Forced                                   : No

  158. Text #1
  159. ID                                       : 8
  160. Format                                   : PGS
  161. Muxing mode                              : zlib
  162. Codec ID                                 : S_HDMV/PGS
  163. Codec ID/Info                            : Picture based subtitle format used on BDs/HD-DVDs
  164. Duration                                 : 1 h 52 min
  165. Bit rate                                 : 50.2 kb/s
  166. Count of elements                        : 3420
  167. Stream size                              : 40.2 MiB (0%)
  168. Title                                    : English-PGS
  169. Language                                 : English
  170. Default                                  : Yes
  171. Forced                                   : No

  172. Text #2
  173. ID                                       : 9
  174. Format                                   : PGS
  175. Muxing mode                              : zlib
  176. Codec ID                                 : S_HDMV/PGS
  177. Codec ID/Info                            : Picture based subtitle format used on BDs/HD-DVDs
  178. Duration                                 : 1 h 55 min
  179. Bit rate                                 : 35.1 kb/s
  180. Count of elements                        : 2556
  181. Stream size                              : 29.1 MiB (0%)
  182. Title                                    : French-PGS
  183. Language                                 : French
  184. Default                                  : No
  185. Forced                                   : No

  186. Text #3
  187. ID                                       : 10
  188. Format                                   : PGS
  189. Muxing mode                              : zlib
  190. Codec ID                                 : S_HDMV/PGS
  191. Codec ID/Info                            : Picture based subtitle format used on BDs/HD-DVDs
  192. Duration                                 : 1 h 55 min
  193. Bit rate                                 : 39.2 kb/s
  194. Count of elements                        : 2850
  195. Stream size                              : 32.5 MiB (0%)
  196. Title                                    : German-PGS
  197. Language                                 : German
  198. Default                                  : No
  199. Forced                                   : No

  200. Text #4
  201. ID                                       : 11
  202. Format                                   : PGS
  203. Muxing mode                              : zlib
  204. Codec ID                                 : S_HDMV/PGS
  205. Codec ID/Info                            : Picture based subtitle format used on BDs/HD-DVDs
  206. Duration                                 : 1 h 55 min
  207. Bit rate                                 : 37.0 kb/s
  208. Count of elements                        : 2704
  209. Stream size                              : 30.7 MiB (0%)
  210. Title                                    : Spanish-PGS
  211. Language                                 : Spanish
  212. Default                                  : No
  213. Forced                                   : No

  214. Text #5
  215. ID                                       : 12
  216. Format                                   : PGS
  217. Muxing mode                              : zlib
  218. Codec ID                                 : S_HDMV/PGS
  219. Codec ID/Info                            : Picture based subtitle format used on BDs/HD-DVDs
  220. Duration                                 : 1 h 43 min
  221. Bit rate                                 : 30 b/s
  222. Count of elements                        : 4
  223. Stream size                              : 23.3 KiB (0%)
  224. Title                                    : French-FORCED-PGS
  225. Language                                 : French
  226. Default                                  : No
  227. Forced                                   : No

  228. Text #6
  229. ID                                       : 13
  230. Format                                   : PGS
  231. Muxing mode                              : zlib
  232. Codec ID                                 : S_HDMV/PGS
  233. Codec ID/Info                            : Picture based subtitle format used on BDs/HD-DVDs
  234. Duration                                 : 4 s 588 ms
  235. Bit rate                                 : 42.6 kb/s
  236. Count of elements                        : 2
  237. Stream size                              : 23.9 KiB (0%)
  238. Title                                    : German-FORCED-PGS
  239. Language                                 : German
  240. Default                                  : No
  241. Forced                                   : No

  242. Text #7
  243. ID                                       : 14
  244. Format                                   : PGS
  245. Muxing mode                              : zlib
  246. Codec ID                                 : S_HDMV/PGS
  247. Codec ID/Info                            : Picture based subtitle format used on BDs/HD-DVDs
  248. Duration                                 : 5 s 422 ms
  249. Bit rate                                 : 17.5 kb/s
  250. Count of elements                        : 2
  251. Stream size                              : 11.6 KiB (0%)
  252. Title                                    : Spanish-FORCED-PGS
  253. Language                                 : Spanish
  254. Default                                  : No
  255. Forced                                   : No

  256. Menu
  257. 00:00:00.000                             : en:Chapter 01
  258. 00:04:50.498                             : en:Chapter 02
  259. 00:10:51.067                             : en:Chapter 03
  260. 00:17:47.691                             : en:Chapter 04
  261. 00:23:53.014                             : en:Chapter 05
  262. 00:30:00.131                             : en:Chapter 06
  263. 00:33:05.066                             : en:Chapter 07
  264. 00:37:09.310                             : en:Chapter 08
  265. 00:43:42.911                             : en:Chapter 09
  266. 00:50:47.335                             : en:Chapter 10
  267. 00:55:02.716                             : en:Chapter 11
  268. 00:59:48.459                             : en:Chapter 12
  269. 01:06:27.233                             : en:Chapter 13
  270. 01:14:32.092                             : en:Chapter 14
  271. 01:18:26.410                             : en:Chapter 15
  272. 01:23:07.899                             : en:Chapter 16
  273. 01:28:04.654                             : en:Chapter 17
  274. 01:33:10.876                             : en:Chapter 18
  275. 01:37:13.744                             : en:Chapter 19
  276. 01:44:39.189                             : en:Chapter 20
  277. 01:47:47.335                             : en:Chapter 21
复制代码

狮子王/狮子王真人版 The.Lion.King.2019.1080p.3D.BluRay.Half-SBS.x264.TrueHD.7.1.Atmos-FGT 20.35GB-2.png 132938q716msygzxy18xxg.png 狮子王/狮子王真人版 The.Lion.King.2019.1080p.3D.BluRay.Half-SBS.x264.TrueHD.7.1.Atmos-FGT 20.35GB-4.png







本帖隐藏的下载地址需要VIP会员才可阅读,您需要升级才可阅读,点击这里升级VIP
VIP会员免费任意下载本站所有资源!---点击开通
回复

使用道具 举报

懒得打字嘛,点击右侧快捷回复 【右侧内容,后台自定义】
您需要登录后才可以回帖 登录 | 立即注册

本版积分规则

QQ|Archiver|手机版|小黑屋| 中国高清网 |网站地图

GMT+8, 2019-11-20 22:09 , Processed in 0.532117 second(s), 37 queries .

Powered by HDchina X3.4

Copyright 2017-2019©HDchina.All right reserved

返回顶部 联系我们