查看: 84|回复: 3

[恐怖片] 套索 Lasso.UNCUT.2017.1080p.BluRay.x264-GETiT 6.55GB

[复制链接]

 成长值: 3210

级别:资源管理组

注册时间
2017-10-20
最后登录
2019-11-20
听众
1
收听
0
主题
87221
蓝光币
63004 枚
贡献
11580 点
发表于 2019-11-7 22:53:59 | 显示全部楼层 |阅读模式
套索 Lasso.UNCUT.2017.1080p.BluRay.x264-GETiT 6.55GB-1.png

译  名 套索
片  名 Lasso
年  代 2017
产  地 美国
类  别 可骇
语  言 英语
IMDb评分  4.7/10 from 393 users
IMDb链接  https://www.imdb.com/title/tt5851598
豆瓣评分 4.4/10 from 79 users
豆瓣链接 https://movie.douban.com/subject/27092233/
导  演 Evan Cecil
编  剧 Roberto Marinas
主  演 肖恩·派特里克·弗兰纳里 Sean Patrick Flanery
       琳赛·摩根 Lindsey Morgan
       Andrew Jacobs


标  签 可骇 | 惊悚 | 美国 | 暴力 | 弱智 | 虐杀 | 美国可骇 | 美国电影

简  介  

  Simon and Kit, two young leaders of an Active Senior tour group, out on an adventure to a small-town rodeo festival located deep in the woods. It’s a great experience for the group… until they try to leave.
  1. Video
  2. ID                                       : 1
  3. Format                                   : AVC
  4. Format/Info                              : Advanced Video Codec
  5. Format profile                           : High@L4
  6. Format settings                          : CABAC / 5 Ref Frames
  7. Format settings, CABAC                   : Yes
  8. Format settings, Reference frames        : 5 frames
  9. Codec ID                                 : V_MPEG4/ISO/AVC
  10. Duration                                 : 1 h 37 min
  11. Bit rate                                 : 8 131 kb/s
  12. Width                                    : 1 920 pixels
  13. Height                                   : 808 pixels
  14. Display aspect ratio                     : 2.40:1
  15. Frame rate mode                          : Constant
  16. Frame rate                               : 23.976 (24000/1001) FPS
  17. Color space                              : YUV
  18. Chroma subsampling                       : 4:2:0
  19. Bit depth                                : 8 bits
  20. Scan type                                : Progressive
  21. Bits/(Pixel*Frame)                       : 0.219
  22. Stream size                              : 5.53 GiB (84%)
  23. Writing library                          : x264 core 157 r2969 d4099dd
  24. Encoding settings                        : cabac=1 / ref=5 / deblock=1:0:0 / analyse=0x3:0x133 / me=umh / subme=7 / psy=1 / psy_rd=1.00:0.00 / mixed_ref=1 / me_range=16 / chroma_me=1 / trellis=2 / 8x8dct=1 / cqm=0 / deadzone=21,11 / fast_pskip=0 / chroma_qp_offset=-2 / threads=16 / lookahead_threads=2 / sliced_threads=0 / nr=0 / decimate=1 / interlaced=0 / bluray_compat=0 / constrained_intra=0 / bframes=3 / b_pyramid=2 / b_adapt=1 / b_bias=0 / direct=3 / weightb=1 / open_gop=0 / weightp=2 / keyint=250 / keyint_min=23 / scenecut=40 / intra_refresh=0 / rc_lookahead=50 / rc=2pass / mbtree=1 / bitrate=8131 / ratetol=1.0 / qcomp=0.60 / qpmin=0 / qpmax=69 / qpstep=4 / cplxblur=20.0 / qblur=0.5 / ip_ratio=1.40 / aq=1:1.00
  25. Language                                 : English
  26. Default                                  : Yes
  27. Forced                                   : No

  28. Audio
  29. ID                                       : 2
  30. Format                                   : DTS
  31. Format/Info                              : Digital Theater Systems
  32. Codec ID                                 : A_DTS
  33. Duration                                 : 1 h 37 min
  34. Bit rate mode                            : Constant
  35. Bit rate                                 : 1 509 kb/s
  36. Channel(s)                               : 6 channels
  37. Channel layout                           : C L R Ls Rs LFE
  38. Sampling rate                            : 48.0 kHz
  39. Frame rate                               : 93.750 FPS (512 SPF)
  40. Bit depth                                : 24 bits
  41. Compression mode                         : Lossy
  42. Stream size                              : 1.03 GiB (16%)
  43. Title                                    : dts
  44. Language                                 : English
  45. Default                                  : Yes
  46. Forced                                   : No

  47. Menu
  48. 00:00:00.000                             : en:00:00:00.000
  49. 00:02:14.760                             : en:00:02:14.760
  50. 00:12:05.224                             : en:00:12:05.224
  51. 00:22:39.900                             : en:00:22:39.900
  52. 00:29:42.364                             : en:00:29:42.364
  53. 00:36:23.723                             : en:00:36:23.723
  54. 00:42:30.381                             : en:00:42:30.381
  55. 00:48:02.296                             : en:00:48:02.296
  56. 01:01:31.104                             : en:01:01:31.104
  57. 01:11:47.929                             : en:01:11:47.929
  58. 01:22:41.290                             : en:01:22:41.290
  59. 01:32:40.180                             : en:01:32:40.180
复制代码

套索 Lasso.UNCUT.2017.1080p.BluRay.x264-GETiT 6.55GB-2.png






VIP会员免费任意下载本站所有资源!---点击开通
回复

使用道具 举报

级别:专业龙套 Lv.4

注册时间
2019-7-28
最后登录
2019-11-20
听众
4
收听
0
主题
0
蓝光币
163 枚
贡献
0 点
发表于 2019-11-8 07:45:21 | 显示全部楼层

楼主太厉害了!楼主,电影应该很好看我觉得中国高清电影网真是个好地方!
VIP会员免费任意下载本站所有资源!---点击开通
回复

使用道具 举报

级别:一举成名 Lv.7

注册时间
2019-4-24
最后登录
2019-11-19
听众
13
收听
0
主题
0
蓝光币
197 枚
贡献
0 点
发表于 2019-11-8 10:59:34 | 显示全部楼层
楼主发贴辛苦了,谢谢楼主分享!我觉得中国高清电影网是注册对了!
VIP会员免费任意下载本站所有资源!---点击开通
回复

使用道具 举报

级别:普通观众 Lv.2

注册时间
2019-11-4
最后登录
2019-11-20
听众
0
收听
0
主题
0
蓝光币
18 枚
贡献
0 点
发表于 2019-11-10 06:19:26 | 显示全部楼层
楼主发贴辛苦了,谢谢楼主分享!我觉得中国高清电影网是注册对了!
VIP会员免费任意下载本站所有资源!---点击开通
回复

使用道具 举报

懒得打字嘛,点击右侧快捷回复 【右侧内容,后台自定义】
您需要登录后才可以回帖 登录 | 立即注册

本版积分规则

QQ|Archiver|手机版|小黑屋| 中国高清网 |网站地图

GMT+8, 2019-11-20 09:18 , Processed in 0.392506 second(s), 37 queries .

Powered by HDchina X3.4

Copyright 2017-2019©HDchina.All right reserved

返回顶部 联系我们