查看: 54|回复: 2

[动作片] 狂风沙/无法无天 American.Outlaws.2001.1080p.BluRay.x264.DTS-FGT 8.60GB

[复制链接]

 成长值: 3140

级别:资源管理组

注册时间
2017-10-20
最后登录
2019-11-11
听众
1
收听
0
主题
86761
蓝光币
61615 枚
贡献
11119 点
发表于 6 天前 | 显示全部楼层 |阅读模式
狂风沙/没法无天 American.Outlaws.2001.1080p.BluRay.x264.DTS-FGT 8.60GB-1.png

译  名 狂风沙 / 没法无天 / 美国地痞
片  名 American Outlaws
年  代 2001
产  地 美国
类  别 行动 / 西部
语  言 英语
上映日期 2001-08-17
IMDb评分  6.0/10 from 13333 users
IMDb链接  https://www.imdb.com/title/tt0244000
豆瓣评分 6.8/10 from 281 users
豆瓣链接 https://movie.douban.com/subject/1305409/
片  长 94 分钟
导  演 Les Mayfield
编  剧 Roderick Taylor / John Rogers
主  演 柯林·法瑞尔 Colin Farrell
       斯科特·凯恩 Scott Caan
       艾丽·拉特 Ali Larter
       盖布瑞·马赫特 Gabriel Macht
       格里高利·史姑娘 Gregory Smith


标  签 西部片 | 美国 | 西部 | ColinFarrell | 科林·法瑞尔 | 美国电影 | 犯罪 | 电影

简  介  

  故事报告的是在美国内战时代,当地的一些农民们分开密苏里州的一个名叫利布提(Liberty)的小镇时,还是一群孩子。4年后,他们作为败北的南方人回到自己的故乡,想重新起头他们之前的生活----耕作地盘、养家活口,此时他们已是一群强健的汉子了。
  可是,“回家”的梦景是何等的长久:杰西-詹姆斯(Jesse James,科林-法瑞尔饰,Colin Farrell)和他的弟弟弗兰克-詹姆斯(Frank James,加布里埃尔-麦希特饰,Gabriel Macht),科尔和鲍勃-扬格兄弟(Cole and Bob Younger,斯科特-坎Scott Caan和维尔-麦考马克Will Mccormack别离饰演)以及他们信得过的朋友科马奇-汤姆(Comanche Tom,纳撒尼尔-阿卡德饰,Nathaniel Arcand)回到他们久违的故乡时,发现那儿已被联邦军队占据了。与此同时,财大气粗的铁路巨头撒迪厄斯-瑞恩斯(Thaddeus Rains,哈里斯-尤林饰,Harris Yulin)的石岛铁路公司正在向西拓展,该公司逼迫农民们以不公道的低价将他们世代的故里出售。更糟的是,恶名远扬的艾伦-平克顿(Allan Pinkerton,提莫西-多尔顿饰,Timothy Dalton)私人侦察公司也竭尽尽力帮助这个铁路公司逼迫这些无辜的平民。
  这一小群退役的兵士们为了配合的好处而团结起来,起头了保卫故里,与东海岸本钱家作斗争叛逆之路。“詹姆斯-扬格"五兄弟以及吉姆-杨格(Jim Younger,格雷戈里-史姑娘饰,Gregory Smith)、克莱-米勒(Clell Miller,TY-奥尼尔饰,TY O'Neal)、朗尼-帕克伍德(Loni Packwood,乔-史蒂文斯饰,Joe Stevens)等,与铁路公司的深仇大恨逼使他们走上了一条踏遍全部西部的征程。他们要向铁路公司最关键的地方动手,阻止他们没法无六合铺设铁路。开初,他们的对手低估了他们,但“詹姆斯-扬格”的这帮兄弟们损坏铁路供给线、倾覆铁轨、抢劫公司存储薪水的银行,无恶不作。他们证实了,他们才是彻彻底底的没法无天之徒。
  这些没法无天之徒将掠夺来的财物与人们分享,在群众心中成为了受人尊重的豪杰。可是这帮人毫无控制的报复不成避免地使杰西-詹姆斯落空了他的真爱----故乡美丽的齐-米米(Zee Mimms,艾丽-拉特饰,Ali Larter)。他的名声也是越来越坏,这使得帮派内也发生了抵触--这个抵触并不亚于他们的仇敌艾伦-平克顿,足以威胁到他们的保存。
  1. Video
  2. ID                                       : 1
  3. Format                                   : AVC
  4. Format/Info                              : Advanced Video Codec
  5. Format profile                           : High@L4
  6. Format settings                          : CABAC / 4 Ref Frames
  7. Format settings, CABAC                   : Yes
  8. Format settings, Reference frames        : 4 frames
  9. Codec ID                                 : V_MPEG4/ISO/AVC
  10. Duration                                 : 1 h 34 min
  11. Bit rate                                 : 11.5 Mb/s
  12. Width                                    : 1 920 pixels
  13. Height                                   : 1 040 pixels
  14. Display aspect ratio                     : 1.85:1
  15. Frame rate mode                          : Constant
  16. Frame rate                               : 23.976 (24000/1001) FPS
  17. Color space                              : YUV
  18. Chroma subsampling                       : 4:2:0
  19. Bit depth                                : 8 bits
  20. Scan type                                : Progressive
  21. Bits/(Pixel*Frame)                       : 0.240
  22. Stream size                              : 7.60 GiB (88%)
  23. Title                                    : American.Outlaws.2001.1080p.BluRay.x264.DTS-FGT
  24. Writing library                          : x264 core 148 r2748 97eaef2
  25. Encoding settings                        : cabac=1 / ref=4 / deblock=1:-2:-2 / analyse=0x3:0x113 / me=umh / subme=9 / psy=1 / psy_rd=1.00:0.15 / mixed_ref=1 / me_range=16 / chroma_me=1 / trellis=2 / 8x8dct=1 / cqm=0 / deadzone=21,11 / fast_pskip=1 / chroma_qp_offset=-3 / threads=24 / lookahead_threads=3 / sliced_threads=0 / nr=0 / decimate=1 / interlaced=0 / bluray_compat=0 / constrained_intra=0 / bframes=3 / b_pyramid=2 / b_adapt=1 / b_bias=0 / direct=3 / weightb=1 / open_gop=0 / weightp=2 / keyint=250 / keyint_min=25 / scenecut=40 / intra_refresh=0 / rc_lookahead=50 / rc=2pass / mbtree=1 / bitrate=11500 / ratetol=1.0 / qcomp=0.60 / qpmin=0 / qpmax=69 / qpstep=4 / cplxblur=20.0 / qblur=0.5 / vbv_maxrate=31250 / vbv_bufsize=31250 / nal_hrd=none / filler=0 / ip_ratio=1.40 / aq=1:1.00
  26. Language                                 : English
  27. Default                                  : Yes
  28. Forced                                   : No

  29. Audio
  30. ID                                       : 2
  31. Format                                   : DTS
  32. Format/Info                              : Digital Theater Systems
  33. Codec ID                                 : A_DTS
  34. Duration                                 : 1 h 34 min
  35. Bit rate mode                            : Constant
  36. Bit rate                                 : 1 509 kb/s
  37. Channel(s)                               : 2 channels
  38. Channel layout                           : L R
  39. Sampling rate                            : 48.0 kHz
  40. Frame rate                               : 93.750 FPS (512 SPF)
  41. Bit depth                                : 16 bits
  42. Compression mode                         : Lossy
  43. Stream size                              : 1 022 MiB (12%)
  44. Title                                    : American.Outlaws.2001.1080p.BluRay.x264.DTS-FGT
  45. Language                                 : English
  46. Default                                  : Yes
  47. Forced                                   : No

  48. Text
  49. ID                                       : 3
  50. Format                                   : UTF-8
  51. Codec ID                                 : S_TEXT/UTF8
  52. Codec ID/Info                            : UTF-8 Plain Text
  53. Duration                                 : 1 h 29 min
  54. Bit rate                                 : 70 b/s
  55. Count of elements                        : 1144
  56. Stream size                              : 46.3 KiB (0%)
  57. Language                                 : English
  58. Default                                  : Yes
  59. Forced                                   : No

  60. Menu
  61. 00:00:00.000                             : en:Chapter 01
  62. 00:07:40.251                             : en:Chapter 02
  63. 00:14:05.052                             : en:Chapter 03
  64. 00:23:06.051                             : en:Chapter 04
  65. 00:27:36.738                             : en:Chapter 05
  66. 00:36:48.497                             : en:Chapter 06
  67. 00:44:28.874                             : en:Chapter 07
  68. 00:53:52.812                             : en:Chapter 08
  69. 01:02:52.143                             : en:Chapter 09
  70. 01:10:13.918                             : en:Chapter 10
  71. 01:17:01.783                             : en:Chapter 11
  72. 01:22:05.879                             : en:Chapter 12
复制代码

224943vadjn5j6dunnk0nb.png 狂风沙/没法无天 American.Outlaws.2001.1080p.BluRay.x264.DTS-FGT 8.60GB-3.png 狂风沙/没法无天 American.Outlaws.2001.1080p.BluRay.x264.DTS-FGT 8.60GB-4.png







VIP会员免费任意下载本站所有资源!---点击开通
回复

使用道具 举报

级别:一举成名 Lv.7

注册时间
2019-4-24
最后登录
2019-11-13
听众
13
收听
0
主题
0
蓝光币
194 枚
贡献
0 点
发表于 5 天前 | 显示全部楼层
楼主发贴辛苦了,谢谢楼主分享!我觉得中国高清电影网是注册对了!
VIP会员免费任意下载本站所有资源!---点击开通
回复

使用道具 举报

级别:普通观众 Lv.2

注册时间
2019-11-2
最后登录
2019-11-12
听众
0
收听
0
主题
0
蓝光币
25 枚
贡献
0 点
发表于 5 天前 | 显示全部楼层
楼主发贴辛苦了,谢谢楼主分享!我觉得中国高清电影网是注册对了!
VIP会员免费任意下载本站所有资源!---点击开通
回复

使用道具 举报

懒得打字嘛,点击右侧快捷回复 【右侧内容,后台自定义】
您需要登录后才可以回帖 登录 | 立即注册

本版积分规则

QQ|Archiver|手机版|小黑屋| 中国高清网 |网站地图 

GMT+8, 2019-11-13 17:31 , Processed in 0.244353 second(s), 37 queries .

Powered by HDchina X3.4

Copyright 2017-2019©HDchina.All right reserved

返回顶部 联系我们