查看: 75|回复: 2

[剧情片] 欲望和智慧/伽摩经:爱情故事 Kama.Sutra.A.Tale.of.Love.1996.1080p.BluRay.x264.DTS-FGT 9.32GB

[复制链接]

 成长值: 3160

级别:资源管理组

注册时间
2017-10-20
最后登录
2019-11-11
听众
1
收听
0
主题
86761
蓝光币
61811 枚
贡献
11119 点
发表于 2019-11-7 22:41:29 | 显示全部楼层 |阅读模式
224014pultfl6bn88thpnb.png

译  名 愿望和聪明 / 伽摩经:恋爱故事
片  名 Kama Sutra: A Tale of Love
年  代 1996
产  地 英国 / 印度 / 美国 / 德国 / 日本
类  别 剧情 / 恋爱 / 历史 / 犯罪
语  言 英语 / 意大利语
上映日期 1996-09-11(多伦多电影节)
IMDb评分  6.0/10 from 9471 users
IMDb链接  https://www.imdb.com/title/tt0116743
豆瓣评分 6.7/10 from 2319 users
豆瓣链接 https://movie.douban.com/subject/1294253/
片  长 117 分钟
导  演 米拉·奈尔 Mira Nair
编  剧 Helena Kriel / 米拉·奈尔 Mira Nair / Wajida Tabassuh
主  演 纳威恩·安德利维斯 Naveen Andrews
       因迪拉·瓦玛 Indira Varma
       萨莉塔·乔德霍里 Sarita Choudhury
       拉蒙·蒂卡拉姆 Ramon Tikaram


标  签 印度 | 情色 | 印度电影 | 恋爱 | 女性 | 情欲 | 1996 | 米拉·奈尔

简  介  

  宫女玛雅(英迪拉·瓦尔玛 Indira Varma饰)自幼和公主塔拉(萨莉塔·乔德霍里 Sarita Choudhury饰)生活在一路,形影不离。她们具有配合的口胃、习惯以及爱好,直到多年以后,二人仍然连结着超越身份职位的深厚友谊。但是这一切都被激烈的妒忌心和爱欲,崩溃得不胜一击。
  公主塔拉嫁给了当地王子拉杰·辛格(纳威恩·安德利维斯 Naveen Andrews饰),拉杰很快就会成为王位继续人。但是在成婚以后,不甘孤单的拉杰很快就厌倦了与塔拉的夫妻生活,他起头追求其他女人来满足自己的性需求。能歌善舞的玛雅一会儿就吸引了拉杰的留意力,拉杰被她的美貌与妖媚迷得颠三倒四。玛雅起头作为拉杰的妾侍奉养左右。将一切看在眼里的公主塔拉只能无可何如地在一旁妒忌。为了保护她的婚姻与恋爱,玛雅被赶出宫庭。流浪的玛雅被宫庭雕镂师杰·库马尔(拉蒙·蒂卡拉姆 Ramon Tikaram饰)发现,几经打仗,玛雅逐步爱上了这位英俊而有才华的杰·库马尔。
  1. Video
  2. ID                                       : 1
  3. Format                                   : AVC
  4. Format/Info                              : Advanced Video Codec
  5. Format profile                           : High@L4
  6. Format settings                          : CABAC / 4 Ref Frames
  7. Format settings, CABAC                   : Yes
  8. Format settings, Reference frames        : 4 frames
  9. Codec ID                                 : V_MPEG4/ISO/AVC
  10. Duration                                 : 1 h 51 min
  11. Bit rate                                 : 11.5 Mb/s
  12. Width                                    : 1 920 pixels
  13. Height                                   : 1 080 pixels
  14. Display aspect ratio                     : 16:9
  15. Frame rate mode                          : Constant
  16. Frame rate                               : 24.000 FPS
  17. Color space                              : YUV
  18. Chroma subsampling                       : 4:2:0
  19. Bit depth                                : 8 bits
  20. Scan type                                : Progressive
  21. Bits/(Pixel*Frame)                       : 0.231
  22. Stream size                              : 8.92 GiB (96%)
  23. Title                                    : Kama.Sutra-A.Tale.of.Love.1996.1080p.BluRay.x264.DTS-FGT
  24. Writing library                          : x264 core 148 r2748 97eaef2
  25. Encoding settings                        : cabac=1 / ref=4 / deblock=1:-2:-2 / analyse=0x3:0x113 / me=umh / subme=9 / psy=1 / psy_rd=1.00:0.15 / mixed_ref=1 / me_range=16 / chroma_me=1 / trellis=2 / 8x8dct=1 / cqm=0 / deadzone=21,11 / fast_pskip=1 / chroma_qp_offset=-3 / threads=24 / lookahead_threads=3 / sliced_threads=0 / nr=0 / decimate=1 / interlaced=0 / bluray_compat=0 / constrained_intra=0 / bframes=3 / b_pyramid=2 / b_adapt=1 / b_bias=0 / direct=3 / weightb=1 / open_gop=0 / weightp=2 / keyint=250 / keyint_min=25 / scenecut=40 / intra_refresh=0 / rc_lookahead=50 / rc=2pass / mbtree=1 / bitrate=11500 / ratetol=1.0 / qcomp=0.60 / qpmin=0 / qpmax=69 / qpstep=4 / cplxblur=20.0 / qblur=0.5 / vbv_maxrate=31250 / vbv_bufsize=31250 / nal_hrd=none / filler=0 / ip_ratio=1.40 / aq=1:1.00
  26. Language                                 : English
  27. Default                                  : Yes
  28. Forced                                   : No

  29. Audio
  30. ID                                       : 2
  31. Format                                   : DTS
  32. Format/Info                              : Digital Theater Systems
  33. Codec ID                                 : A_DTS
  34. Duration                                 : 1 h 51 min
  35. Bit rate mode                            : Constant
  36. Bit rate                                 : 510 kb/s
  37. Channel(s)                               : 2 channels
  38. Channel layout                           : L R
  39. Sampling rate                            : 48.0 kHz
  40. Frame rate                               : 93.750 FPS (512 SPF)
  41. Bit depth                                : 16 bits
  42. Compression mode                         : Lossy
  43. Stream size                              : 405 MiB (4%)
  44. Title                                    : Kama.Sutra-A.Tale.of.Love.1996.1080p.BluRay.x264.DTS-FGT
  45. Language                                 : English
  46. Default                                  : Yes
  47. Forced                                   : No

  48. Text
  49. ID                                       : 3
  50. Format                                   : UTF-8
  51. Codec ID                                 : S_TEXT/UTF8
  52. Codec ID/Info                            : UTF-8 Plain Text
  53. Duration                                 : 1 h 44 min
  54. Bit rate                                 : 27 b/s
  55. Count of elements                        : 752
  56. Stream size                              : 21.2 KiB (0%)
  57. Language                                 : English
  58. Default                                  : Yes
  59. Forced                                   : No

  60. Menu
  61. 00:00:00.000                             : en:Chapter 01
  62. 00:02:47.167                             : en:Chapter 02
  63. 00:05:21.583                             : en:Chapter 03
  64. 00:08:32.083                             : en:Chapter 04
  65. 00:11:41.708                             : en:Chapter 05
  66. 00:14:17.417                             : en:Chapter 06
  67. 00:16:17.500                             : en:Chapter 07
  68. 00:20:40.125                             : en:Chapter 08
  69. 00:23:29.667                             : en:Chapter 09
  70. 00:27:13.667                             : en:Chapter 10
  71. 00:32:27.958                             : en:Chapter 11
  72. 00:33:54.917                             : en:Chapter 12
  73. 00:35:57.833                             : en:Chapter 13
  74. 00:38:26.333                             : en:Chapter 14
  75. 00:42:16.458                             : en:Chapter 15
  76. 00:45:19.458                             : en:Chapter 16
  77. 00:48:55.625                             : en:Chapter 17
  78. 00:51:40.625                             : en:Chapter 18
  79. 00:54:21.375                             : en:Chapter 19
  80. 00:57:12.625                             : en:Chapter 20
  81. 00:58:54.458                             : en:Chapter 21
  82. 01:01:57.542                             : en:Chapter 22
  83. 01:05:12.750                             : en:Chapter 23
  84. 01:06:49.667                             : en:Chapter 24
  85. 01:11:31.667                             : en:Chapter 25
  86. 01:13:34.250                             : en:Chapter 26
  87. 01:18:13.958                             : en:Chapter 27
  88. 01:19:47.042                             : en:Chapter 28
  89. 01:23:32.042                             : en:Chapter 29
  90. 01:28:16.667                             : en:Chapter 30
  91. 01:32:18.833                             : en:Chapter 31
  92. 01:35:48.167                             : en:Chapter 32
  93. 01:39:35.667                             : en:Chapter 33
  94. 01:42:08.750                             : en:Chapter 34
  95. 01:45:21.833                             : en:Chapter 35
  96. 01:46:58.458                             : en:Chapter 36
复制代码

224020d0khd0ydu8di8ik3.png 愿望和聪明/伽摩经:恋爱故事 Kama.Sutra.A.Tale.of.Love.1996.1080p.BluRay.x264.DTS-FGT 9.32GB-3.png 愿望和聪明/伽摩经:恋爱故事 Kama.Sutra.A.Tale.of.Love.1996.1080p.BluRay.x264.DTS-FGT 9.32GB-4.png







VIP会员免费任意下载本站所有资源!---点击开通
回复

使用道具 举报

级别:一举成名 Lv.7

注册时间
2019-4-24
最后登录
2019-11-14
听众
13
收听
0
主题
0
蓝光币
194 枚
贡献
0 点
发表于 7 天前 | 显示全部楼层
楼主发贴辛苦了,谢谢楼主分享!我觉得中国高清电影网是注册对了!
VIP会员免费任意下载本站所有资源!---点击开通
回复

使用道具 举报

级别:专业龙套 Lv.4

注册时间
2019-1-22
最后登录
2019-11-13
听众
13
收听
0
主题
0
蓝光币
136 枚
贡献
0 点
发表于 5 天前 | 显示全部楼层
楼主发贴辛苦了,谢谢楼主分享!我觉得中国高清电影网是注册对了!
VIP会员免费任意下载本站所有资源!---点击开通
回复

使用道具 举报

懒得打字嘛,点击右侧快捷回复 【右侧内容,后台自定义】
您需要登录后才可以回帖 登录 | 立即注册

本版积分规则

QQ|Archiver|手机版|小黑屋| 中国高清网 |网站地图 

GMT+8, 2019-11-15 07:27 , Processed in 0.261067 second(s), 37 queries .

Powered by HDchina X3.4

Copyright 2017-2019©HDchina.All right reserved

返回顶部 联系我们