查看: 10|回复: 0

[剧情片] 纪事 Cronicas.2004.SPANISH.720p.AMZN.WEBRip.DDP2.0.x264-monkee 4.09GB

[复制链接]

 成长值: 3160

级别:资源管理组

注册时间
2017-10-20
最后登录
2019-11-11
听众
1
收听
0
主题
86761
蓝光币
61813 枚
贡献
11119 点
发表于 2019-11-7 22:06:28 | 显示全部楼层 |阅读模式
纪事 Cronicas.2004.SPANISH.720p.AMZN.WEBRip.DDP2.0.x264-monkee 4.09GB-1.png

译  名 纪事
片  名 Crónicas
年  代 2004
产  地 墨西哥 / 厄瓜多尔
类  别 剧情 / 惊悚 / 犯罪
语  言 西班牙语 / 英语
上映日期 2004-05-16
IMDb评分  6.8/10 from 3209 users
IMDb链接  https://www.imdb.com/title/tt0382621
豆瓣评分 0/10 from 0 users
豆瓣链接 https://movie.douban.com/subject/1474654/
片  长 108 分钟
导  演 塞巴斯特·柯代洛 Sebastián Cordero
编  剧 塞巴斯特·柯代洛 Sebastián Cordero
主  演 约翰·雷吉扎莫 John Leguizamo
       达米安·阿尔卡扎 Damián Alcázar


标  签 男演员_墨西哥_Alcázar_Damián | 男演员_美国_Leguizamo_John | 消息 | 已下 | 女演员_西班牙_Watling_Leonor | 墨西哥 | 国家_南美洲 | 儿童

简  介  

  A suspense thriller about a reporter from Miami who travels to Ecuador in pursuit of a serial killer known as the "Monster of Babahoyo."

获奖情况  

  第57届戛纳电影节(2004)
  一种关注单元 一种关注大奖(提名) 塞巴斯特·柯代洛
  1. Video
  2. ID                                       : 1
  3. Format                                   : AVC
  4. Format/Info                              : Advanced Video Codec
  5. Format profile                           : High@L4
  6. Format settings                          : CABAC / 4 Ref Frames
  7. Format settings, CABAC                   : Yes
  8. Format settings, Reference frames        : 4 frames
  9. Codec ID                                 : V_MPEG4/ISO/AVC
  10. Duration                                 : 1 h 37 min
  11. Bit rate mode                            : Constant
  12. Bit rate                                 : 6 000 kb/s
  13. Width                                    : 1 280 pixels
  14. Height                                   : 720 pixels
  15. Display aspect ratio                     : 16:9
  16. Frame rate mode                          : Constant
  17. Frame rate                               : 23.976 (24000/1001) FPS
  18. Color space                              : YUV
  19. Chroma subsampling                       : 4:2:0
  20. Bit depth                                : 8 bits
  21. Scan type                                : Progressive
  22. Bits/(Pixel*Frame)                       : 0.272
  23. Stream size                              : 3.94 GiB (96%)
  24. Default                                  : Yes
  25. Forced                                   : No
  26. Color range                              : Limited
  27. Color primaries                          : BT.709
  28. Transfer characteristics                 : BT.709
  29. Matrix coefficients                      : BT.709

  30. Audio
  31. ID                                       : 2
  32. Format                                   : E-AC-3
  33. Format/Info                              : Enhanced AC-3
  34. Commercial name                          : Dolby Digital Plus
  35. Codec ID                                 : A_EAC3
  36. Duration                                 : 1 h 37 min
  37. Bit rate mode                            : Constant
  38. Bit rate                                 : 224 kb/s
  39. Channel(s)                               : 2 channels
  40. Channel layout                           : L R
  41. Sampling rate                            : 48.0 kHz
  42. Frame rate                               : 31.250 FPS (1536 SPF)
  43. Compression mode                         : Lossy
  44. Stream size                              : 157 MiB (4%)
  45. Language                                 : Spanish
  46. Service kind                             : Complete Main
  47. Default                                  : Yes
  48. Forced                                   : No

  49. Text #1
  50. ID                                       : 3
  51. Format                                   : UTF-8
  52. Codec ID                                 : S_TEXT/UTF8
  53. Codec ID/Info                            : UTF-8 Plain Text
  54. Duration                                 : 1 h 31 min
  55. Bit rate                                 : 70 b/s
  56. Count of elements                        : 1363
  57. Stream size                              : 46.8 KiB (0%)
  58. Language                                 : English
  59. Default                                  : No
  60. Forced                                   : No

  61. Text #2
  62. ID                                       : 4
  63. Format                                   : UTF-8
  64. Codec ID                                 : S_TEXT/UTF8
  65. Codec ID/Info                            : UTF-8 Plain Text
  66. Duration                                 : 1 h 33 min
  67. Bit rate                                 : 69 b/s
  68. Count of elements                        : 1408
  69. Stream size                              : 47.7 KiB (0%)
  70. Title                                    : SDH
  71. Language                                 : English
  72. Default                                  : No
  73. Forced                                   : No
复制代码

纪事 Cronicas.2004.SPANISH.720p.AMZN.WEBRip.DDP2.0.x264-monkee 4.09GB-2.png 纪事 Cronicas.2004.SPANISH.720p.AMZN.WEBRip.DDP2.0.x264-monkee 4.09GB-3.png 纪事 Cronicas.2004.SPANISH.720p.AMZN.WEBRip.DDP2.0.x264-monkee 4.09GB-4.png







VIP会员免费任意下载本站所有资源!---点击开通
回复

使用道具 举报

懒得打字嘛,点击右侧快捷回复 【右侧内容,后台自定义】
您需要登录后才可以回帖 登录 | 立即注册

本版积分规则

QQ|Archiver|手机版|小黑屋| 中国高清网 |网站地图 

GMT+8, 2019-11-15 07:59 , Processed in 0.221523 second(s), 37 queries .

Powered by HDchina X3.4

Copyright 2017-2019©HDchina.All right reserved

返回顶部 联系我们