查看: 31|回复: 2

[动画片] 小小驯鹿艾略特 Elliot.The.Littlest.Reindeer.2018.720p.BluRay.x264-GETiT 4.37GB

[复制链接]

 成长值: 3140

级别:资源管理组

注册时间
2017-10-20
最后登录
2019-11-11
听众
1
收听
0
主题
86761
蓝光币
61615 枚
贡献
11119 点
发表于 6 天前 | 显示全部楼层 |阅读模式
小小驯鹿艾略特 Elliot.The.Littlest.Reindeer.2018.720p.BluRay.x264-GETiT 4.37GB-1.png
8 P  b! {, N1 _* y2 d' j
7 a* z. P2 c# _$ [译  名 小小驯鹿艾略特" q8 r6 y1 @- v2 A7 @
片  名 Elliot the Littlest Reindeer
9 \' n2 P6 k3 [% D# j年  代 2018/ q8 l4 g8 W) H1 r. A
产  地 加拿大
" H6 U& T) F4 X: f1 n# t类  别 动画 / 家庭5 o* q3 j; z+ r2 W, Z" X& ]. l
语  言 英语! T7 V( a; K7 X7 ?
上映日期 2018-11-30(美国)
+ {: \3 E9 v! `/ S1 r% VIMDb评分  5.0/10 from 316 users3 o/ v3 I8 q- O5 C- f. _, _: y/ B
IMDb链接  https://www.imdb.com/title/tt4177856
1 e4 @! w& a/ ~4 A; _+ P豆瓣评分 0/10 from 0 users
7 k* V: `3 }) s' d: G豆瓣链接 https://movie.douban.com/subject/27139372/
  B# ]# B. L* C3 q0 e% }4 I3 M片  长 60分钟1 X* k* K6 `' ~5 l
导  演 Jennifer Westcott. W* k# t2 J. i0 R1 z2 d+ k
编  剧 Jennifer Westcott, `; f, f+ \6 F; G& m
主  演 莫蕾娜·巴卡林 Morena Baccarin
. L$ c8 C9 B- \: n* Q1 a/ H! E" m. h- k       乔什·哈切森 Josh Hutcherson
5 x; w# v4 S+ u* |/ y. S8 [: p* w       约翰·克立斯 John Cleese3 [' s& y0 O' i" N/ X. V  p
       马丁·肖特 Martin Short7 g" V9 G5 i6 u7 }
       杰夫·敦哈姆 Jeff Dunham
* Z4 y1 I: p0 H% _6 j0 r- x7 h       克里斯托弗·贾科特 Christopher Jacot
" d4 ]8 b! ^$ b% M       萨曼莎·比 Samantha Bee
+ u9 h. c' U* |+ t- Z7 I6 v       罗伯特·丁克勒 Robert Tinkler
* ~" Y$ H: ]6 g, @" C1 n       George Buza0 A& u! u! F$ }' a5 V: T8 q
       Jean Yoon
: q" W$ L% z# ^( z) d       朱莉·勒米厄 Julie Lemieux1 d; E$ T$ w$ v1 f% E, a
       Scott Farley
% ]( J- u9 q% K! r- {5 Q# k       Carlos Bustamante
1 h  v3 b+ }' z" M; p       Steph Lynn Robinson) Z- E! {& z" h. n
       Carly Heffernan: n0 t1 T3 t# Z
; n3 w) [# _) M: P- `( x
, y5 |) r6 E+ e+ t" k1 b. j/ r
标  签 圣诞 | 动画 | 加拿大" D* C) b! g. o' N  m0 Y9 o  J
' O, ]# A0 d# }9 w- [; {
简  介  
5 d5 z, T+ J6 V* r3 n. I: Q* i+ D5 x. v7 N+ ]
  When Blitzen announces his retirement on December 21st, a miniature horse has 3 days to fulfill his lifelong dream of earning a spot on Santa's team at the North Pole try-outs.
9 t( q/ c# O# [; R% o
  1. Video
    4 Z2 i1 j: w4 ]1 b5 a) I8 b
  2. ID                                       : 1
    ( T. r3 F3 V( ^* k
  3. Format                                   : AVC
    8 Q0 L$ A3 t5 [: c' s9 d2 T
  4. Format/Info                              : Advanced Video Codec9 ^" j6 g: i% i) I
  5. Format profile                           : High@L4
    * K8 @. Y& i1 H' c1 l
  6. Format settings                          : CABAC / 5 Ref Frames8 z! o. w+ e  m( V! a# N
  7. Format settings, CABAC                   : Yes
    $ D3 X& F+ S& y2 K9 X
  8. Format settings, Reference frames        : 5 frames
    ) j: u6 \/ ]3 ^
  9. Codec ID                                 : V_MPEG4/ISO/AVC
    , H! E% n( ^* i, k- T8 h5 e3 j% d
  10. Duration                                 : 1 h 29 min
    + {: S& I6 M; e" Q5 ?
  11. Bit rate                                 : 5 457 kb/s% U" |- ?: m; T. _4 l
  12. Width                                    : 1 280 pixels; C/ |2 Z# ]1 }& B& ]" A# S  P
  13. Height                                   : 544 pixels
    # n4 Y0 W3 S, D9 Y7 [' l. z
  14. Display aspect ratio                     : 2.35:1: C; h; ~3 d, w
  15. Frame rate mode                          : Constant. q  }+ K- x* y% h7 o
  16. Frame rate                               : 23.976 (24000/1001) FPS& U& @) z& g2 ^* ?7 F6 A+ n
  17. Color space                              : YUV
    3 |. p  g0 S( R, M8 I" q6 l
  18. Chroma subsampling                       : 4:2:0. f7 f# ?" ?% v7 ]
  19. Bit depth                                : 8 bits
    2 @4 o, @* o; B: I8 b2 N
  20. Scan type                                : Progressive
    " E' [- `9 ]7 h: i1 ]8 C6 V
  21. Bits/(Pixel*Frame)                       : 0.327! v& G- Z5 I5 d& u. p& o
  22. Stream size                              : 3.42 GiB (78%)+ ~8 h$ x: _' k: M2 k4 u
  23. Writing library                          : x264 core 157 r2969 d4099dd' k& Y/ l( z/ v2 J
  24. Encoding settings                        : cabac=1 / ref=5 / deblock=1:0:0 / analyse=0x3:0x133 / me=umh / subme=7 / psy=1 / psy_rd=1.00:0.00 / mixed_ref=1 / me_range=16 / chroma_me=1 / trellis=2 / 8x8dct=1 / cqm=0 / deadzone=21,11 / fast_pskip=0 / chroma_qp_offset=-2 / threads=9 / lookahead_threads=1 / sliced_threads=0 / nr=0 / decimate=1 / interlaced=0 / bluray_compat=0 / constrained_intra=0 / bframes=3 / b_pyramid=2 / b_adapt=1 / b_bias=0 / direct=3 / weightb=1 / open_gop=0 / weightp=2 / keyint=250 / keyint_min=23 / scenecut=40 / intra_refresh=0 / rc_lookahead=50 / rc=2pass / mbtree=1 / bitrate=5457 / ratetol=1.0 / qcomp=0.60 / qpmin=0 / qpmax=69 / qpstep=4 / cplxblur=20.0 / qblur=0.5 / ip_ratio=1.40 / aq=1:1.00' |) Y8 X  \/ l# [) \* j
  25. Language                                 : English
    % k6 R( D  F( g' d: i7 F; O
  26. Default                                  : Yes8 }4 V  @5 p& `/ H
  27. Forced                                   : No# c' J/ r$ [( D1 u
  28. 7 @0 d6 }* `- i0 c5 u% s: V6 C, J* ?
  29. Audio* L9 n* s% f/ Q' C
  30. ID                                       : 2
    - f9 o( }; j. d
  31. Format                                   : DTS$ G- Y2 n* M' l& x
  32. Format/Info                              : Digital Theater Systems. C* b3 D) U7 K+ I' M
  33. Codec ID                                 : A_DTS1 W4 p) c7 @# \. C
  34. Duration                                 : 1 h 29 min
    " X# {+ [( T+ A0 F2 o
  35. Bit rate mode                            : Constant
    6 Y! I3 w$ `7 |7 m# X% r
  36. Bit rate                                 : 1 509 kb/s
    3 M. g) N" p2 y/ p0 |; A  k
  37. Channel(s)                               : 6 channels8 h  r3 n4 Q* S
  38. Channel layout                           : C L R Ls Rs LFE. D0 Y+ F6 p! G
  39. Sampling rate                            : 48.0 kHz6 O+ t; L2 I) F1 C
  40. Frame rate                               : 93.750 FPS (512 SPF)- I' `5 h. A+ M; m4 B6 {
  41. Bit depth                                : 24 bits1 e# W+ X& \! H6 a( y/ r: A
  42. Compression mode                         : Lossy8 c( Z# C8 y6 F/ _
  43. Stream size                              : 969 MiB (22%)+ \: K5 Q* z4 Q$ k, ?
  44. Title                                    : dts
    + A$ G4 w/ a7 |' v8 F, R
  45. Language                                 : English7 F8 n! U0 |. p
  46. Default                                  : Yes1 n9 ?; H5 U" ^* t8 p3 ]
  47. Forced                                   : No
    " k  `4 g5 i% F
  48. + B1 K9 T' Z: s- W9 I( j
  49. Menu
    ' \: u$ u: M9 j' i& D- U" }: |  j$ M
  50. 00:00:00.000                             : en:00:00:00.000( F! m) y0 ?: N7 a
  51. 00:06:45.989                             : en:00:06:45.989
      x0 F- U" K$ Q1 G$ C
  52. 00:13:04.200                             : en:00:13:04.200  Y1 F1 Z  j9 D5 e
  53. 00:21:03.554                             : en:00:21:03.5542 ~* R6 r  c" ?3 m6 l# S, Y% t5 R
  54. 00:30:10.225                             : en:00:30:10.225- m( I8 a* Q! R9 D! H
  55. 00:37:53.938                             : en:00:37:53.938
    # ~% M3 F8 Y" Y4 O2 M3 u
  56. 00:45:58.422                             : en:00:45:58.422
    " r6 P0 a) |6 ?, y2 S
  57. 00:52:16.050                             : en:00:52:16.050
    3 a' D2 r, T& p6 ?
  58. 01:02:10.060                             : en:01:02:10.060
    5 ~1 p; s; V% E
  59. 01:10:29.225                             : en:01:10:29.2251 @2 h- W! H$ x2 i8 ~* b
  60. 01:16:19.033                             : en:01:16:19.033
    ! D" {/ ^" j- n) w5 \! ^( \
  61. 01:21:28.634                             : en:01:21:28.634
复制代码

: y+ F& {* l7 [) N- z  s3 ^ 小小驯鹿艾略特 Elliot.The.Littlest.Reindeer.2018.720p.BluRay.x264-GETiT 4.37GB-2.png
. f" f: k( c1 W, D% z9 @7 `# k
# g9 C- t8 Q. b" G, S5 l
  P, v" U- @2 |; c2 q# d% }2 B" u. S

: u9 [2 s- b5 I! V) O
  l$ Q; m7 t+ ~) u# p7 i0 i
1 V8 p) ?; Z' I( P
VIP会员免费任意下载本站所有资源!---点击开通
回复

使用道具 举报

级别:一举成名 Lv.7

注册时间
2019-4-24
最后登录
2019-11-13
听众
13
收听
0
主题
0
蓝光币
194 枚
贡献
0 点
发表于 5 天前 | 显示全部楼层
楼主发贴辛苦了,谢谢楼主分享!我觉得中国高清电影网是注册对了!
VIP会员免费任意下载本站所有资源!---点击开通
回复

使用道具 举报

级别:普通观众 Lv.2

注册时间
2019-10-27
最后登录
2019-11-11
听众
0
收听
0
主题
0
蓝光币
20 枚
贡献
0 点
发表于 5 天前 | 显示全部楼层
楼主发贴辛苦了,谢谢楼主分享!我觉得中国高清电影网是注册对了!
VIP会员免费任意下载本站所有资源!---点击开通
回复

使用道具 举报

懒得打字嘛,点击右侧快捷回复 【右侧内容,后台自定义】
您需要登录后才可以回帖 登录 | 立即注册

本版积分规则

QQ|Archiver|手机版|小黑屋| 中国高清网 |网站地图 

GMT+8, 2019-11-13 18:39 , Processed in 0.494912 second(s), 37 queries .

Powered by HDchina X3.4

Copyright 2017-2019©HDchina.All right reserved

返回顶部 联系我们