查看: 147|回复: 2

[动画片] 小小驯鹿艾略特 Elliot.The.Littlest.Reindeer.2018.720p.BluRay.x264-GETiT 4.37GB

[复制链接]

 成长值: 4190

级别:资源管理组

注册时间
2017-10-20
最后登录
2020-2-26
听众
1
收听
0
主题
92798
蓝光币
104139 枚
贡献
17160 点
发表于 2019-11-7 20:58:02 | 显示全部楼层 |阅读模式
小小驯鹿艾略特 Elliot.The.Littlest.Reindeer.2018.720p.BluRay.x264-GETiT 4.37GB-1.png ! X, \  d) L& G; `
7 |+ w# \( k. c* M( s7 p
译  名 小小驯鹿艾略特0 e9 o/ T# z! e" J" D
片  名 Elliot the Littlest Reindeer6 H5 [' t# X& p7 j+ P0 F% e" ^
年  代 2018/ F4 P3 g5 W7 z6 a( Z0 I* `
产  地 加拿大. |& @& V  g- p0 Z! i# U7 q
类  别 动画 / 家庭
8 O7 a! A! R) w6 |  y* F7 F语  言 英语1 {' Y1 n  ]/ h1 d- I3 Q  \
上映日期 2018-11-30(美国)
1 U4 `7 \  Y0 r' eIMDb评分  5.0/10 from 316 users& E4 s% p! ^2 r8 J: d) {, R: f+ Y
IMDb链接  https://www.imdb.com/title/tt4177856
; y$ {7 ~" P1 h* t  e' G豆瓣评分 0/10 from 0 users  k4 ?) U2 ]0 k, |; E& w
豆瓣链接 https://movie.douban.com/subject/27139372/( D# T. f4 X+ N
片  长 60分钟
% T2 o2 i) p* e. A+ M6 M1 a导  演 Jennifer Westcott, g( O# d5 b2 i1 H8 D
编  剧 Jennifer Westcott
9 c; M1 b# J, N2 T8 s) }( l主  演 莫蕾娜·巴卡林 Morena Baccarin
* u$ X2 Q  k, p) L1 S       乔什·哈切森 Josh Hutcherson
6 ]0 j# `5 i) `       约翰·克立斯 John Cleese" g: e$ e3 h' v9 r9 Q9 c
       马丁·肖特 Martin Short
- `5 O$ \* Q* H* a3 {9 b: \       杰夫·敦哈姆 Jeff Dunham
+ V0 d# `) d, R) e& L4 }       克里斯托弗·贾科特 Christopher Jacot
1 j; l% q' \4 s       萨曼莎·比 Samantha Bee/ O& o6 r$ h% i4 w
       罗伯特·丁克勒 Robert Tinkler
4 V3 D% o7 @, T       George Buza
  O# c+ X! `- e" m) p- X       Jean Yoon+ Z& n4 ^  c, E% r& N7 E
       朱莉·勒米厄 Julie Lemieux
) f! K8 X9 H  [/ R. S       Scott Farley
3 u5 ~- Y' _: v. g' p       Carlos Bustamante) e1 D( B, h8 P& E8 U
       Steph Lynn Robinson6 i& L) f9 U  \2 k) X" _
       Carly Heffernan$ z! f( U5 B# l( N% y

. [2 M# [0 }; s1 r4 o6 ?+ a5 Y; ]" a: b, b
标  签 圣诞 | 动画 | 加拿大8 w6 P: D0 k5 e+ b  U1 H% B
  [# h; A2 B/ H# L6 Q
简  介  5 K' B& ?4 \+ d' V+ [, J

. Y( k3 U, w0 M+ s& n- m1 V  When Blitzen announces his retirement on December 21st, a miniature horse has 3 days to fulfill his lifelong dream of earning a spot on Santa's team at the North Pole try-outs.
# P  w2 z: b1 D+ w% `- C4 H
  1. Video
    & k$ p' j1 n% t# k' P
  2. ID                                       : 1
    ' p9 [: b$ v3 f* N2 f8 y
  3. Format                                   : AVC' s, S8 b/ D" |0 g2 d% S
  4. Format/Info                              : Advanced Video Codec
    + i8 D1 U! W9 W5 w9 ]- |
  5. Format profile                           : High@L4- x, V1 D0 s( f6 T
  6. Format settings                          : CABAC / 5 Ref Frames
    ) [9 _2 u! v& ^: w6 v  A9 e
  7. Format settings, CABAC                   : Yes
    - W* Z8 i6 Q6 X; c; q1 ^
  8. Format settings, Reference frames        : 5 frames
    8 B/ F6 Z7 Q) C1 T: ~( V
  9. Codec ID                                 : V_MPEG4/ISO/AVC, @. ?* e. A( H# x5 N  V
  10. Duration                                 : 1 h 29 min9 j9 F! K" j6 b
  11. Bit rate                                 : 5 457 kb/s
    ' G7 _( m5 ?; y) O/ p& b
  12. Width                                    : 1 280 pixels3 n  o9 Y1 q# v! R6 G- G
  13. Height                                   : 544 pixels
    " d, i* z, g* K6 q
  14. Display aspect ratio                     : 2.35:19 t  r5 z# H6 U( _" M% o  D" R
  15. Frame rate mode                          : Constant
    / y* p% c. S, P  d4 N1 Y6 E+ H
  16. Frame rate                               : 23.976 (24000/1001) FPS
    1 s$ D/ {) I* q
  17. Color space                              : YUV# q6 `5 ~: J; _; m' i* b( F- Y
  18. Chroma subsampling                       : 4:2:07 t9 d" T  V, P  S% F* d% T
  19. Bit depth                                : 8 bits, i4 u/ Q8 m* o) f9 `- A( N
  20. Scan type                                : Progressive
    ; S6 ~7 g. H, s
  21. Bits/(Pixel*Frame)                       : 0.327$ e* C7 ]: Z9 T( i
  22. Stream size                              : 3.42 GiB (78%)
    ! K7 ~9 f, L9 X: A
  23. Writing library                          : x264 core 157 r2969 d4099dd
    5 R( h% E/ |0 _9 Y
  24. Encoding settings                        : cabac=1 / ref=5 / deblock=1:0:0 / analyse=0x3:0x133 / me=umh / subme=7 / psy=1 / psy_rd=1.00:0.00 / mixed_ref=1 / me_range=16 / chroma_me=1 / trellis=2 / 8x8dct=1 / cqm=0 / deadzone=21,11 / fast_pskip=0 / chroma_qp_offset=-2 / threads=9 / lookahead_threads=1 / sliced_threads=0 / nr=0 / decimate=1 / interlaced=0 / bluray_compat=0 / constrained_intra=0 / bframes=3 / b_pyramid=2 / b_adapt=1 / b_bias=0 / direct=3 / weightb=1 / open_gop=0 / weightp=2 / keyint=250 / keyint_min=23 / scenecut=40 / intra_refresh=0 / rc_lookahead=50 / rc=2pass / mbtree=1 / bitrate=5457 / ratetol=1.0 / qcomp=0.60 / qpmin=0 / qpmax=69 / qpstep=4 / cplxblur=20.0 / qblur=0.5 / ip_ratio=1.40 / aq=1:1.00) x( k1 @& d5 `. @5 w
  25. Language                                 : English* d, }! ?' j& e/ x  [; Y; u
  26. Default                                  : Yes
    , Q6 z' e" F; x" S+ g) }" K
  27. Forced                                   : No1 T% N% }% Y9 F6 z4 ]& C

  28. 4 M2 X  m8 ~  d
  29. Audio
    / d/ {' h- q. _# q) j0 {
  30. ID                                       : 2
    8 O. ^& d$ W+ Z" b* n* l
  31. Format                                   : DTS
    6 M3 J' _5 l! ]+ {2 }7 h! R
  32. Format/Info                              : Digital Theater Systems
    5 |1 r$ [8 }) K9 c& F
  33. Codec ID                                 : A_DTS
    / A5 f- p" [! d2 Q6 A
  34. Duration                                 : 1 h 29 min' Z: n  l' X: \( A9 q. X
  35. Bit rate mode                            : Constant
    & V8 M0 O5 L! K, _( H* o
  36. Bit rate                                 : 1 509 kb/s
    $ ?8 m/ ^7 ^3 E: Y0 L5 i: V% G: t
  37. Channel(s)                               : 6 channels
    , [  s8 U3 [4 T6 B* Y
  38. Channel layout                           : C L R Ls Rs LFE* u- U) R6 k! p4 V$ U" P; ?1 `* X1 V
  39. Sampling rate                            : 48.0 kHz
    , ^5 C8 @7 V& w$ r
  40. Frame rate                               : 93.750 FPS (512 SPF)
    5 `/ k) z; u; e9 ]6 W& C
  41. Bit depth                                : 24 bits$ k+ D' W/ e7 a* }& f: q
  42. Compression mode                         : Lossy1 n& z+ d. s+ C1 x# r: @
  43. Stream size                              : 969 MiB (22%)
    % e! X2 q  D: S! ^
  44. Title                                    : dts
    ' v5 E8 c* v) {. S  ]
  45. Language                                 : English
    4 d+ M  {8 k1 P8 b+ R
  46. Default                                  : Yes
    # |  J5 l! u2 d" y! q- g
  47. Forced                                   : No9 O) M5 Z- [- e6 w
  48. . F+ Y* v4 x7 _' _4 B$ `
  49. Menu
    8 o4 C9 N" M0 i; Z- [: t7 V
  50. 00:00:00.000                             : en:00:00:00.000# o9 g! L1 _% o  N: V/ Z0 c5 D
  51. 00:06:45.989                             : en:00:06:45.989, W0 m( }! g9 q9 g. |
  52. 00:13:04.200                             : en:00:13:04.200. G7 r# p& n1 U, g  u
  53. 00:21:03.554                             : en:00:21:03.554
    1 z, K. f* l$ \  l# Z
  54. 00:30:10.225                             : en:00:30:10.225. F) O8 X* v5 [* }
  55. 00:37:53.938                             : en:00:37:53.9389 }0 T% Q2 W' _! [% n
  56. 00:45:58.422                             : en:00:45:58.4221 }9 ?$ J  x7 m' s% V
  57. 00:52:16.050                             : en:00:52:16.050
    ; s! ~% G) f# U1 E
  58. 01:02:10.060                             : en:01:02:10.060
    5 Z/ ^" |- c# M. z, L" G9 t
  59. 01:10:29.225                             : en:01:10:29.225: l  B7 |7 v: _
  60. 01:16:19.033                             : en:01:16:19.033
    8 i! M7 E( a( S  V' c9 \
  61. 01:21:28.634                             : en:01:21:28.634
复制代码

7 p& L" I) T) b# K) S$ y, E 小小驯鹿艾略特 Elliot.The.Littlest.Reindeer.2018.720p.BluRay.x264-GETiT 4.37GB-2.png 1 M2 k, b8 S" E* E8 S& g6 P

8 p, a6 ]/ _# p0 W9 x* i9 [( a$ {6 Y+ G  n# d( {" K
% M/ W9 u* s4 B8 I* j
% M( e3 ~# {1 \) h! x

, V: J$ S: p$ g! @$ o4 Z% B$ Y) V* S& S/ p  J
回复

使用道具 举报

级别:一线明星 Lv.8

注册时间
2019-4-24
最后登录
2020-2-25
听众
14
收听
0
主题
0
蓝光币
343 枚
贡献
0 点
发表于 2019-11-8 10:46:26 | 显示全部楼层
楼主发贴辛苦了,谢谢楼主分享!我觉得中国高清电影网是注册对了!
回复

使用道具 举报

级别:荣升主角 Lv.5

注册时间
2019-10-27
最后登录
2020-2-25
听众
1
收听
0
主题
0
蓝光币
258 枚
贡献
0 点
发表于 2019-11-8 23:00:24 | 显示全部楼层
楼主发贴辛苦了,谢谢楼主分享!我觉得中国高清电影网是注册对了!
回复

使用道具 举报

懒得打字嘛,点击右侧快捷回复 【右侧内容,后台自定义】
您需要登录后才可以回帖 登录 | 立即注册

本版积分规则

Archiver|手机版|小黑屋| 中国高清网 |网站地图

GMT+8, 2020-2-26 00:19 , Processed in 0.205642 second(s), 37 queries .

Powered by HDchina X3.4

Copyright 2017-2019©HDchina.All right reserved

返回顶部 联系我们