查看: 33|回复: 1

[冒险片] 花生酱猎鹰/花生酱猎鹰的愿望 The.Peanut.Butter.Falcon.2019.1080p.BluRay.x264.DTS-HD.MA.5.1-FGT 9.14GB

[复制链接]

 成长值: 3230

级别:资源管理组

注册时间
2017-10-20
最后登录
2019-11-21
听众
1
收听
0
主题
87390
蓝光币
63614 枚
贡献
11749 点
发表于 2019-11-7 20:52:53 | 显示全部楼层 |阅读模式
花生酱猎鹰/花生酱猎鹰的愿望 The.Peanut.Butter.Falcon.2019.1080p.BluRay.x264.DTS-HD.MA.5.1-FGT 9.14GB-1.png

译  名 花生酱猎鹰 / 花生酱猎鹰的愿望(台)
片  名 The Peanut Butter Falcon
年  代 2019
产  地 美国
类  别 冒险
语  言 英语
上映日期 2019-03-09(西南偏南电影节) / 2019-08-09(美国)
IMDb评分  8.0/10 from 6896 users
IMDb链接  https://www.imdb.com/title/tt4364194
豆瓣评分 8.0/10 from 389 users
豆瓣链接 https://movie.douban.com/subject/27035542/
片  长 93分钟
导  演 泰勒·尼尔森 Tyler Nilson / 迈克·舒瓦茨 Mike Schwartz
编  剧 泰勒·尼尔森 Tyler Nilson / 迈克·舒瓦茨 Mike Schwartz
主  演 希亚·拉博夫 Shia LaBeouf
       达科塔·约翰逊 Dakota Johnson
       扎克·高察根 Zack Gottsagen
       约翰·浩克斯 John Hawkes
       托马斯·哈登·丘奇 Thomas Haden Church
       布鲁斯·邓恩 Bruce Dern
       乔·博恩瑟 Jon Bernthal
       米克·弗利 Mick Foley
       Yelawolf
       Jake Roberts
       Raquel Aurora
       Michael Berthold
       Deja Dee
       Karen B. Greer
       Noah Hein


标  签 美国 | 公路 | 笑剧 | 剧情 | 2019 | 励志 | 美国电影 | 自力

简  介  

  电影报告一个唐氏患儿Zak胡想成为一位摔跤手,是以逃离疗养院想去上体校,路遇一位在逃犯,这位逃犯成为了他的教练和洽友。此外来自疗养院的一位护工也加入了他们的旅程。
  1. Video
  2. ID                                       : 1
  3. Format                                   : AVC
  4. Format/Info                              : Advanced Video Codec
  5. Format profile                           : High@L4
  6. Format settings                          : CABAC / 5 Ref Frames
  7. Format settings, CABAC                   : Yes
  8. Format settings, Reference frames        : 5 frames
  9. Codec ID                                 : V_MPEG4/ISO/AVC
  10. Duration                                 : 1 h 36 min
  11. Bit rate                                 : 9 789 kb/s
  12. Width                                    : 1 920 pixels
  13. Height                                   : 808 pixels
  14. Display aspect ratio                     : 2.40:1
  15. Frame rate mode                          : Constant
  16. Frame rate                               : 23.976 (24000/1001) FPS
  17. Color space                              : YUV
  18. Chroma subsampling                       : 4:2:0
  19. Bit depth                                : 8 bits
  20. Scan type                                : Progressive
  21. Bits/(Pixel*Frame)                       : 0.263
  22. Stream size                              : 6.63 GiB (73%)
  23. Title                                    : The.Peanut.Butter.Falcon.2019.1080p.BluRay.x264.DTS-HD.MA.5.1-FGT
  24. Writing library                          : x264 core 158 r2984 3759fcb
  25. Encoding settings                        : cabac=1 / ref=5 / deblock=1:-3:-3 / analyse=0x3:0x113 / me=umh / subme=8 / psy=1 / psy_rd=1.00:0.00 / mixed_ref=1 / me_range=16 / chroma_me=1 / trellis=1 / 8x8dct=1 / cqm=0 / deadzone=21,11 / fast_pskip=1 / chroma_qp_offset=-2 / threads=25 / lookahead_threads=4 / sliced_threads=0 / nr=0 / decimate=1 / interlaced=0 / bluray_compat=0 / constrained_intra=0 / bframes=3 / b_pyramid=2 / b_adapt=1 / b_bias=0 / direct=3 / weightb=1 / open_gop=0 / weightp=2 / keyint=250 / keyint_min=23 / scenecut=40 / intra_refresh=0 / rc_lookahead=50 / rc=2pass / mbtree=1 / bitrate=9789 / ratetol=1.0 / qcomp=0.60 / qpmin=0 / qpmax=69 / qpstep=4 / cplxblur=20.0 / qblur=0.5 / ip_ratio=1.40 / aq=1:1.00
  26. Language                                 : English
  27. Default                                  : Yes
  28. Forced                                   : No

  29. Audio
  30. ID                                       : 2
  31. Format                                   : DTS XLL
  32. Format/Info                              : Digital Theater Systems
  33. Commercial name                          : DTS-HD Master Audio
  34. Codec ID                                 : A_DTS
  35. Duration                                 : 1 h 36 min
  36. Bit rate mode                            : Variable
  37. Bit rate                                 : 3 656 kb/s
  38. Channel(s)                               : 6 channels
  39. Channel layout                           : C L R Ls Rs LFE
  40. Sampling rate                            : 48.0 kHz
  41. Frame rate                               : 93.750 FPS (512 SPF)
  42. Bit depth                                : 24 bits
  43. Compression mode                         : Lossless
  44. Stream size                              : 2.48 GiB (27%)
  45. Title                                    : The.Peanut.Butter.Falcon.2019.1080p.BluRay.x264.DTS-HD.MA.5.1-FGT
  46. Language                                 : English
  47. Default                                  : Yes
  48. Forced                                   : No

  49. Text #1
  50. ID                                       : 3
  51. Format                                   : UTF-8
  52. Codec ID                                 : S_TEXT/UTF8
  53. Codec ID/Info                            : UTF-8 Plain Text
  54. Duration                                 : 1 h 35 min
  55. Bit rate                                 : 67 b/s
  56. Count of elements                        : 1549
  57. Stream size                              : 47.0 KiB (0%)
  58. Title                                    : English-srt
  59. Language                                 : English
  60. Default                                  : Yes
  61. Forced                                   : No

  62. Text #2
  63. ID                                       : 4
  64. Format                                   : PGS
  65. Muxing mode                              : zlib
  66. Codec ID                                 : S_HDMV/PGS
  67. Codec ID/Info                            : Picture based subtitle format used on BDs/HD-DVDs
  68. Duration                                 : 1 h 34 min
  69. Bit rate                                 : 46.3 kb/s
  70. Count of elements                        : 3278
  71. Stream size                              : 31.3 MiB (0%)
  72. Title                                    : English-PGS
  73. Language                                 : English
  74. Default                                  : No
  75. Forced                                   : No

  76. Text #3
  77. ID                                       : 5
  78. Format                                   : PGS
  79. Muxing mode                              : zlib
  80. Codec ID                                 : S_HDMV/PGS
  81. Codec ID/Info                            : Picture based subtitle format used on BDs/HD-DVDs
  82. Duration                                 : 1 h 36 min
  83. Bit rate                                 : 44.4 kb/s
  84. Count of elements                        : 3506
  85. Stream size                              : 30.5 MiB (0%)
  86. Title                                    : Spanish-PGS
  87. Language                                 : Spanish
  88. Default                                  : No
  89. Forced                                   : No

  90. Menu
  91. 00:00:00.000                             : en:Chapter 01
  92. 00:08:14.243                             : en:Chapter 02
  93. 00:17:54.073                             : en:Chapter 03
  94. 00:25:26.191                             : en:Chapter 04
  95. 00:32:30.949                             : en:Chapter 05
  96. 00:42:37.555                             : en:Chapter 06
  97. 00:50:34.906                             : en:Chapter 07
  98. 00:58:02.270                             : en:Chapter 08
  99. 01:04:19.856                             : en:Chapter 09
  100. 01:13:20.396                             : en:Chapter 10
  101. 01:21:12.617                             : en:Chapter 11
  102. 01:31:09.464                             : en:Chapter 12
复制代码

花生酱猎鹰/花生酱猎鹰的愿望 The.Peanut.Butter.Falcon.2019.1080p.BluRay.x264.DTS-HD.MA.5.1-FGT 9.14GB-2.png 花生酱猎鹰/花生酱猎鹰的愿望 The.Peanut.Butter.Falcon.2019.1080p.BluRay.x264.DTS-HD.MA.5.1-FGT 9.14GB-3.png 花生酱猎鹰/花生酱猎鹰的愿望 The.Peanut.Butter.Falcon.2019.1080p.BluRay.x264.DTS-HD.MA.5.1-FGT 9.14GB-4.png






VIP会员免费任意下载本站所有资源!---点击开通
回复

使用道具 举报

级别:一举成名 Lv.7

注册时间
2019-4-24
最后登录
2019-11-21
听众
13
收听
0
主题
0
蓝光币
197 枚
贡献
0 点
发表于 2019-11-8 13:36:22 | 显示全部楼层
楼主发贴辛苦了,谢谢楼主分享!我觉得中国高清电影网是注册对了!
VIP会员免费任意下载本站所有资源!---点击开通
回复

使用道具 举报

懒得打字嘛,点击右侧快捷回复 【右侧内容,后台自定义】
您需要登录后才可以回帖 登录 | 立即注册

本版积分规则

QQ|Archiver|手机版|小黑屋| 中国高清网 |网站地图

GMT+8, 2019-11-22 04:44 , Processed in 0.220274 second(s), 37 queries .

Powered by HDchina X3.4

Copyright 2017-2019©HDchina.All right reserved

返回顶部 联系我们