查看: 217|回复: 1

[剧情片] 橄榄树下的情人 Through.the.Olive.Trees.1994.720p.BluRay.x264-GHOULS 4.38GB

[复制链接]

 成长值: 5550

级别:资源管理组

注册时间
2017-10-20
最后登录
2020-6-4
听众
1
收听
0
主题
96338
蓝光币
155179 枚
贡献
20716 点
发表于 2019-11-7 20:50:43 | 显示全部楼层 |阅读模式

: F! q# G* A. M- B/ @- t 橄榄树下的情人 Through.the.Olive.Trees.1994.720p.BluRay.x264-GHOULS 4.38GB-1.png
2 a+ S4 L4 K, `! v  L! G" j/ k
' c4 V4 z! q( I译  名 橄榄树下的情人 / Through The Olive Trees / Zire darakhatan zeyton / 穿越橄榄树林0 p, k& Z: @: c/ i2 L7 p7 q: ^( [
片  名 ??? ?????? ?????) q4 y, L6 o1 h+ C- p* \* p$ ~+ H
年  代 19943 [- C1 |% i6 M9 F0 U
产  地 伊朗 / 法国
1 C8 T5 M; [9 _$ Q; j7 ?# d类  别 剧情
& J  v- l/ w4 K+ g  \语  言 波斯语
- E1 E: B3 Z+ P  ^: V2 V5 K1 J上映日期 1994-02-01(伊朗曙光旬电影节)- J6 P1 |1 l7 _& F. X
IMDb评分  7.8/10 from 5108 users% v- u; \% }4 I7 |  \9 M) _+ y5 A
IMDb链接  https://www.imdb.com/title/tt0111845
4 v3 ~2 H; l3 a: Q3 a5 p' C2 Z豆瓣评分 8.3/10 from 6814 users" ~( _0 K* N' b6 ^
豆瓣链接 https://movie.douban.com/subject/1303465/! r8 ?% }- T1 f8 c$ z4 H" `
片  长 103 分钟- h- Z3 S: i7 v+ g# z' `2 i$ c
导  演 阿巴斯·基亚罗斯塔米 Abbas Kiarostami
2 H+ s4 h; a/ Z  ~) ]编  剧 阿巴斯·基亚罗斯塔米 Abbas Kiarostami / 哈罗德·曼宁 Harold Manning / Hengameh Panahi, S3 M& k6 j# n: O  v) ]$ J
主  演 默罕默德·阿里·科沙瓦兹 Mohamad Ali Keshavarz
! \* P( Q- h. P: u" M) L       Farhad Kheradmand8 T$ j' Z, r  j# |8 S. Y
       Zarifeh Shiva& b, X1 ?- ^4 l, b, Z) _! F
       Hossein Rezai' [7 K% Y0 ]5 r1 l  s2 h
       Tahereh Ladanian
- G- E' Z3 x/ Y       Hocine Redai
' d1 j' P7 y/ S9 |       Zahra Nourouzi: R- d' J0 H, n. p( t* }1 ~4 c
       Nosrat Bagheri
" I$ I& c$ P5 O" I+ o- @" m6 ?5 ~       Azim Aziz Nia. Z7 [( J* K1 d9 K
       Ostadvali Babaei% @. E# d* K( M" d' H( f$ r
       N. Boursadiki
, j8 D+ R' K5 s. @7 S2 q       Khodabakhsh Defaei/ O1 F8 B! x& \6 M
       Ahmed Ahmed Poor1 v5 j9 y# g6 b
       Babek Ahmed Poor
1 ?- k8 t( W1 D% |2 L       Mahbanou Darabi5 _5 b, l5 Z9 t$ H( m
       贾法·帕纳西 Jafar Panahi7 G' |$ {0 K5 k6 a6 W- D

. R3 T3 m: m4 \5 T$ q$ w8 a! l5 N/ Y; h9 X  F+ ~% P. U  Q) @
标  签 伊朗 | 阿巴斯 | 伊朗电影 | 恋爱 | 橄榄树下的情人 | 法国 | AbbasKiarostami | 1994; ~; }- `* @0 i, F

/ o+ P# X3 Q1 z7 [, {简  介  
- S% k2 K% s: T( X1 A! r2 {# ]9 ^  g1 i. K
  地震事后,一支摄制组来到某个山村预备拍摄影片,导演(默罕默德·阿里·科沙瓦兹 Mohamad Ali Keshavarz 饰)决议自始自终启用非职业演员。偶合的是,饰演男配角的侯赛因(Hossein Rezai 饰)暗恋女配角塔赫莉(Tahereh Ladanian 饰 )很久。侯赛因身世清贫,形单影只;塔赫莉则家境优渥,受过杰出的教育。由于彼其间的庞大不同,侯赛因的恋爱始终未能开花成果。不外,地震摧毁了塔赫莉的一切,她的家境和侯赛因相差无几。借着拍戏的机遇,侯赛因向爱人展开大胆的追求……" ~6 Z; Y6 L+ H$ l+ D
  本片荣获1994年芝加哥国际电影节最好影片奖、1995年新加坡国际电影节最好导演奖、1994年圣保罗国际电影节影评人奖。
, n! F0 V4 y/ l; ^% @/ M- x- y  M# z* H$ U6 Y
获奖情况  
$ w0 N3 n4 R, ^% o
) P* q7 _) Z' u4 ^: L3 Z  第47届戛纳电影节(1994)# K& S- w5 l% u' X/ V0 a0 V
  主比赛单元 金棕榈奖(提名) 阿巴斯·基亚罗斯塔米& x# a5 k3 _* Y+ T+ s

. i8 x6 s7 J. f/ s  第8届新加坡国际电影节(1995)4 @# y9 e- O3 U5 `  ?* t
  银屏奖 最好导演 阿巴斯·基亚罗斯塔米, a9 _! L: ^/ f) Q" V" ]- h! d
  1. Video
    / @  }+ w1 O( X+ M' X
  2. ID                                       : 1
    3 I6 ]; i5 {" w: a! @0 `1 E
  3. Format                                   : AVC/ U, F  S6 }- ]8 l4 K5 A
  4. Format/Info                              : Advanced Video Codec
    " ?) G" \6 S6 Q8 Z
  5. Format profile                           : High@L4
    / }9 }9 H: _0 P' P) f" K
  6. Format settings                          : CABAC / 9 Ref Frames1 X# E4 q7 t7 c! n6 a8 i
  7. Format settings, CABAC                   : Yes
    8 B  M8 ?! A; W8 q1 v! W1 {. c
  8. Format settings, Reference frames        : 9 frames7 F7 n+ y! o( r' z2 \* U
  9. Codec ID                                 : V_MPEG4/ISO/AVC
    & A' s* p/ J: S; f, }, J$ x- b
  10. Duration                                 : 1 h 43 min
      D' G& K4 h% b- n0 N
  11. Bit rate                                 : 5 379 kb/s4 x) w7 ~; N# V; S8 Q9 O
  12. Width                                    : 1 200 pixels
    " ?6 y+ i* ^! f
  13. Height                                   : 720 pixels$ n$ u7 L; b: F: Y) r/ Z
  14. Display aspect ratio                     : 5:3
    1 }4 {* c# @  x* \
  15. Frame rate mode                          : Constant6 S0 @/ ^8 E4 W1 ~$ E! i0 E
  16. Frame rate                               : 23.976 (24000/1001) FPS
    . h9 W" r- }8 ~# \8 W
  17. Color space                              : YUV3 V% b  r) I, A" p; K3 T; p& d* j4 n  e
  18. Chroma subsampling                       : 4:2:0& I4 _  s9 ^7 A+ S$ R% i
  19. Bit depth                                : 8 bits
    3 l& o' ~* T; ?: V# N
  20. Scan type                                : Progressive4 ?7 O; \8 g5 Z! P, z" ~
  21. Bits/(Pixel*Frame)                       : 0.2603 `  u3 Z6 j8 V5 |4 c- B3 j
  22. Stream size                              : 3.90 GiB (89%)
    & ]( G4 ^( r8 U* J) s3 J( X# E8 P1 B) @
  23. Writing library                          : x264 core 158 r2988 7817004! t& H6 n0 ~4 A0 R3 K& ?
  24. Encoding settings                        : cabac=1 / ref=9 / deblock=1:-3:-3 / analyse=0x3:0x133 / me=umh / subme=9 / psy=1 / psy_rd=1.00:0.00 / mixed_ref=1 / me_range=24 / chroma_me=1 / trellis=1 / 8x8dct=1 / cqm=0 / deadzone=21,11 / fast_pskip=0 / chroma_qp_offset=-2 / threads=22 / lookahead_threads=3 / sliced_threads=0 / nr=0 / decimate=1 / interlaced=0 / bluray_compat=0 / constrained_intra=0 / bframes=8 / b_pyramid=2 / b_adapt=2 / b_bias=0 / direct=3 / weightb=1 / open_gop=0 / weightp=2 / keyint=250 / keyint_min=23 / scenecut=40 / intra_refresh=0 / rc_lookahead=60 / rc=2pass / mbtree=1 / bitrate=5379 / ratetol=1.0 / qcomp=0.60 / qpmin=0 / qpmax=69 / qpstep=4 / cplxblur=20.0 / qblur=0.5 / vbv_maxrate=62500 / vbv_bufsize=78125 / nal_hrd=none / filler=0 / ip_ratio=1.40 / aq=1:1.00: }& ~' X4 _6 Z% }# _, n
  25. Default                                  : Yes
    . M2 b7 h3 g( t! z4 g
  26. Forced                                   : No4 b0 z+ O* C& u

  27. ! H* c6 {7 p% f6 U" s* y
  28. Audio
    " j  q2 u! N8 `$ X- r
  29. ID                                       : 2
    - J: ^% Q+ e3 _0 \! f
  30. Format                                   : FLAC1 q; W/ G4 P9 o, X
  31. Format/Info                              : Free Lossless Audio Codec- s' ~. I: m( J
  32. Codec ID                                 : A_FLAC
    6 F$ h, _" ?1 i- w* n" j5 Y( \
  33. Duration                                 : 1 h 43 min% O4 J4 L2 Q- ~: S0 M# Z
  34. Bit rate mode                            : Variable
    1 [, h9 d1 F7 N: c$ C. q7 A; z- V# b8 Y
  35. Bit rate                                 : 643 kb/s, @! a0 ]# k; b7 U4 {9 q1 M
  36. Channel(s)                               : 1 channel' k  ~! p. x6 Q/ m# |) S, v* A
  37. Channel layout                           : C
    ' R' c* i" l) k- ]& C9 ?
  38. Sampling rate                            : 48.0 kHz0 ?7 ^- x6 O# E
  39. Frame rate                               : 10.417 FPS (4608 SPF)
    ; y0 O! B5 i' R( F) M1 q+ E
  40. Bit depth                                : 24 bits
    # A; ~* ^; J$ a# I, f$ b
  41. Compression mode                         : Lossless8 D: a0 G- N" B$ {4 J0 Q& c* ]
  42. Stream size                              : 477 MiB (11%)% b5 f( Y+ F5 h! u* m# |1 \
  43. Writing library                          : Lavf58.29.1003 [3 j2 _# v: e
  44. Language                                 : Persian
    ) ~0 x& J6 ]+ N+ C& E7 Y& \& t: G* t
  45. Default                                  : Yes8 @5 U. [$ ^( W  K2 G
  46. Forced                                   : No
    ) z! Y3 U) m+ x( l% n9 ]# l
  47. ! Q$ H5 n6 t8 d
  48. Text, |0 j% t+ |8 q# K6 a; c) b2 ~* d5 a
  49. ID                                       : 3  t$ V8 h0 x: P4 A& q; `
  50. Format                                   : UTF-8$ N$ B5 S: y7 [# ?0 a/ ^
  51. Codec ID                                 : S_TEXT/UTF8
    $ w( U  f0 Y) d5 o3 A
  52. Codec ID/Info                            : UTF-8 Plain Text
    9 r% H1 K9 P+ [! v! N: T
  53. Duration                                 : 1 h 43 min
    8 s. b" D- t% E: z& y
  54. Bit rate                                 : 53 b/s
    ) [. B: x$ A1 x# o$ A
  55. Count of elements                        : 1456
    ! \, e6 M  S7 Y- |8 H
  56. Stream size                              : 40.4 KiB (0%)
    " Y% p2 ?. |) O
  57. Language                                 : English
    3 X: {' g* T2 P# C3 ?/ M
  58. Default                                  : Yes" H$ j( X. o/ Q5 g; F
  59. Forced                                   : No4 j/ ^6 h5 e3 e; |) ]6 L. L  o  J

  60. % O; Z, U: P7 [, s, R
  61. Menu
    0 x  @  G% y& D% t
  62. 00:00:00.000                             : en:Chapter 011 l3 M  _$ }+ ?& e3 n& U3 q) M
  63. 00:03:52.274                             : en:Chapter 023 e$ L3 z5 e3 G1 f; D. l- ?* |
  64. 00:04:50.499                             : en:Chapter 03, n& @* b7 P4 ?
  65. 00:08:54.242                             : en:Chapter 04& n+ k# \/ `( u$ h6 I/ `
  66. 00:15:44.777                             : en:Chapter 05
    ( `3 ]1 J4 {, w( ^) `- b. |! b
  67. 00:19:46.227                             : en:Chapter 06
    % i5 ~& T0 Q% e5 _* }6 h4 p
  68. 00:25:56.722                             : en:Chapter 07
    3 J& x  X, K& U! X" R3 H
  69. 00:34:02.165                             : en:Chapter 084 W$ ~# I5 t! D
  70. 00:40:51.866                             : en:Chapter 09
    # E( ]  u7 k0 `# T  k4 H
  71. 00:46:52.852                             : en:Chapter 10
    7 ]% D% k" ^& O4 [) v
  72. 00:51:55.029                             : en:Chapter 11  y' A( f0 t1 W# y6 C
  73. 00:59:57.511                             : en:Chapter 12
    " e" L9 W; ^) M6 h% s( j
  74. 01:04:07.469                             : en:Chapter 13* U; O# V3 l. @! ^! m
  75. 01:09:57.276                             : en:Chapter 14, `2 f- L7 O7 K4 \- `
  76. 01:18:33.626                             : en:Chapter 15
    8 {7 Q1 x: i( P6 q( Z3 k
  77. 01:22:20.769                             : en:Chapter 16
      m% q; _0 r. W- S. `
  78. 01:27:36.626                             : en:Chapter 17
    ; ~4 K. f! s3 T
  79. 01:30:53.448                             : en:Chapter 189 O+ e) a- }4 O$ x% U
  80. 01:37:08.031                             : en:Chapter 19
    1 i4 z: c! `8 T% f
  81. 01:42:08.456                             : en:Chapter 20
复制代码
+ I2 J0 H/ o- p4 c7 ^- B8 {
204955ggagus5ssrdnaoko.png : k# I6 E9 H! L8 K' ~( b6 g, z# B9 X

" C1 J9 @* i7 l: [
: g9 W2 j9 T9 L4 i7 L
5 O2 b3 G" \# |, p, M
+ e1 k  U4 n  E6 \* F4 s8 i, m: V& l4 I! C

& k( n6 e9 X" Q, O, ~8 G* F# R9 G8 x
回复

使用道具 举报

级别:功成名就 Lv.9

注册时间
2019-4-24
最后登录
2020-6-3
听众
14
收听
0
主题
0
蓝光币
541 枚
贡献
0 点
发表于 2019-11-8 10:48:24 | 显示全部楼层
楼主发贴辛苦了,谢谢楼主分享!我觉得中国高清电影网是注册对了!
回复

使用道具 举报

懒得打字嘛,点击右侧快捷回复 【右侧内容,后台自定义】
您需要登录后才可以回帖 登录 | 立即注册

本版积分规则

Archiver|手机版|小黑屋| 中国高清网 ( ICP备17007870号-2 ) |网站地图 

GMT+8, 2020-6-5 04:17 , Processed in 0.158098 second(s), 38 queries .

Powered by HDchina X3.4

Copyright 2017-2019©HDchina.All right reserved

返回顶部 联系我们