查看: 38|回复: 1

[剧情片] 橄榄树下的情人 Through.the.Olive.Trees.1994.720p.BluRay.x264-GHOULS 4.38GB

[复制链接]

 成长值: 3160

级别:资源管理组

注册时间
2017-10-20
最后登录
2019-11-15
听众
1
收听
0
主题
86768
蓝光币
61946 枚
贡献
11126 点
发表于 2019-11-7 20:50:43 | 显示全部楼层 |阅读模式

) z6 Q6 [9 N  d( D; `7 d8 A2 D 橄榄树下的情人 Through.the.Olive.Trees.1994.720p.BluRay.x264-GHOULS 4.38GB-1.png
, @" R, {1 c& P' k8 m) i. r
5 _9 _/ R/ j# [8 ]/ L2 r译  名 橄榄树下的情人 / Through The Olive Trees / Zire darakhatan zeyton / 穿越橄榄树林8 S0 o4 s! x: `6 b0 u
片  名 ??? ?????? ?????7 m) R9 s* r. Z
年  代 1994
6 o  d3 J- m( X/ }2 ]1 L/ N! L+ `1 a% ~产  地 伊朗 / 法国6 ]9 Z; A  q5 U: p5 `' r" l
类  别 剧情- x, Z5 v6 H; f3 B0 ^
语  言 波斯语2 n, B) y' O" {/ Q: U
上映日期 1994-02-01(伊朗曙光旬电影节)0 N4 h2 _6 D; j" C- D# Y; \
IMDb评分  7.8/10 from 5108 users
3 X0 Y" H: Q' {2 yIMDb链接  https://www.imdb.com/title/tt0111845' z# d; @- _8 b1 B. E3 T6 j$ `
豆瓣评分 8.3/10 from 6814 users
9 l2 O# i; {! E4 m% q! R+ @0 f豆瓣链接 https://movie.douban.com/subject/1303465/
" G. g, R% d" d' Y5 r片  长 103 分钟# _/ ?' f5 N2 N6 S, r! i$ F' f! ^
导  演 阿巴斯·基亚罗斯塔米 Abbas Kiarostami
, M7 R0 W- v8 E* }编  剧 阿巴斯·基亚罗斯塔米 Abbas Kiarostami / 哈罗德·曼宁 Harold Manning / Hengameh Panahi& P+ i8 q2 Q. A' F' ?
主  演 默罕默德·阿里·科沙瓦兹 Mohamad Ali Keshavarz" P' F0 {2 v- Q& \4 \
       Farhad Kheradmand. k, Y# u  J& P
       Zarifeh Shiva' K, n2 K/ _' Y- D$ p3 x+ k  m+ y
       Hossein Rezai/ ~6 c/ t* m3 {$ X4 _* j
       Tahereh Ladanian
0 C5 \4 d- t/ r( U; H8 o8 l       Hocine Redai
* @6 [: h& Q" n& `       Zahra Nourouzi+ f& \1 d1 b" B0 L1 V
       Nosrat Bagheri
  m% T9 k, O4 S0 u0 n+ H       Azim Aziz Nia
: i# w0 G; f3 _' N! z, s       Ostadvali Babaei) A3 A; G4 N1 N
       N. Boursadiki) ~" Q  @* T  ~( m8 s1 q8 o
       Khodabakhsh Defaei+ \+ a5 h6 P( P9 F2 m2 v5 S
       Ahmed Ahmed Poor& v% v* w, O; Q* Q1 ~
       Babek Ahmed Poor
' n$ @9 p- I* I2 A       Mahbanou Darabi! H5 J! ]) k6 ]
       贾法·帕纳西 Jafar Panahi: y8 _) i2 _8 D1 b) i8 C2 ?
6 E. d. f% s* e- O( m
& r$ l! T% g* W' r4 S: b: y
标  签 伊朗 | 阿巴斯 | 伊朗电影 | 恋爱 | 橄榄树下的情人 | 法国 | AbbasKiarostami | 1994! a) t; U* `/ C8 B2 q; A- u

3 V5 e. M2 c" `2 d5 Q4 E简  介  3 ?" v" P1 {$ u+ ^

: m& m1 a2 [0 y" b1 l  地震事后,一支摄制组来到某个山村预备拍摄影片,导演(默罕默德·阿里·科沙瓦兹 Mohamad Ali Keshavarz 饰)决议自始自终启用非职业演员。偶合的是,饰演男配角的侯赛因(Hossein Rezai 饰)暗恋女配角塔赫莉(Tahereh Ladanian 饰 )很久。侯赛因身世清贫,形单影只;塔赫莉则家境优渥,受过杰出的教育。由于彼其间的庞大不同,侯赛因的恋爱始终未能开花成果。不外,地震摧毁了塔赫莉的一切,她的家境和侯赛因相差无几。借着拍戏的机遇,侯赛因向爱人展开大胆的追求……, X- S, \! o8 n7 U! Q6 g6 x
  本片荣获1994年芝加哥国际电影节最好影片奖、1995年新加坡国际电影节最好导演奖、1994年圣保罗国际电影节影评人奖。
9 `1 r* k/ h( e5 @
  t  I% l0 e: O/ ^" X获奖情况  
/ {2 B& S! A" P6 r1 }: s: l
$ t( ]; W" R, p7 s3 v  第47届戛纳电影节(1994)
/ m# P( O' b$ T5 P/ ?& [. i# g3 ^! R  主比赛单元 金棕榈奖(提名) 阿巴斯·基亚罗斯塔米
. O4 G' j% v! h. z6 @3 v6 ~
# l' [, N! U& q" o6 z5 G0 W  第8届新加坡国际电影节(1995)" Q* `2 o; c; E) p2 b# T0 r# J
  银屏奖 最好导演 阿巴斯·基亚罗斯塔米; u1 U; l9 @  W' g7 [
  1. Video" A4 a2 L1 D! S
  2. ID                                       : 1" R6 V. V. Y3 N8 A6 f; r
  3. Format                                   : AVC
    # k, {* }8 D) d" g# K
  4. Format/Info                              : Advanced Video Codec, E) s! ]& [" M4 W+ S7 K
  5. Format profile                           : High@L47 R% X& ~% M5 X% U- Y
  6. Format settings                          : CABAC / 9 Ref Frames
    ' @1 o! K# Z  ]" U# u, I
  7. Format settings, CABAC                   : Yes( a* m: q5 Y$ y% ?. F0 F
  8. Format settings, Reference frames        : 9 frames8 F6 J) ~/ f* q; `1 K; V
  9. Codec ID                                 : V_MPEG4/ISO/AVC/ D6 [, E; r$ G' ?! D9 ?& ]4 q
  10. Duration                                 : 1 h 43 min: \% W2 ^2 a. b. @
  11. Bit rate                                 : 5 379 kb/s
      P6 O6 E- _# _- S, S: M! q, F( }
  12. Width                                    : 1 200 pixels1 v" q- e% N1 X
  13. Height                                   : 720 pixels
    ! }7 X) M0 q; t, }9 w+ C
  14. Display aspect ratio                     : 5:3& Z& h( K2 c6 m( _: v0 p
  15. Frame rate mode                          : Constant
    2 Z7 D% C  u/ ~
  16. Frame rate                               : 23.976 (24000/1001) FPS. G" @! }8 L* g: h
  17. Color space                              : YUV
    + q' }3 |/ Z7 H- m: u" {( @
  18. Chroma subsampling                       : 4:2:0
    : Z' l) p, c1 @
  19. Bit depth                                : 8 bits
    , z" [  W3 A& L
  20. Scan type                                : Progressive$ }( E( p% u: h* `( I$ K" F
  21. Bits/(Pixel*Frame)                       : 0.2605 d& n8 F, V9 v
  22. Stream size                              : 3.90 GiB (89%). g+ m7 W& _, k& t) W) ^; x! E: O
  23. Writing library                          : x264 core 158 r2988 7817004" [/ d9 f- U1 |1 ]& p, k( ?& N
  24. Encoding settings                        : cabac=1 / ref=9 / deblock=1:-3:-3 / analyse=0x3:0x133 / me=umh / subme=9 / psy=1 / psy_rd=1.00:0.00 / mixed_ref=1 / me_range=24 / chroma_me=1 / trellis=1 / 8x8dct=1 / cqm=0 / deadzone=21,11 / fast_pskip=0 / chroma_qp_offset=-2 / threads=22 / lookahead_threads=3 / sliced_threads=0 / nr=0 / decimate=1 / interlaced=0 / bluray_compat=0 / constrained_intra=0 / bframes=8 / b_pyramid=2 / b_adapt=2 / b_bias=0 / direct=3 / weightb=1 / open_gop=0 / weightp=2 / keyint=250 / keyint_min=23 / scenecut=40 / intra_refresh=0 / rc_lookahead=60 / rc=2pass / mbtree=1 / bitrate=5379 / ratetol=1.0 / qcomp=0.60 / qpmin=0 / qpmax=69 / qpstep=4 / cplxblur=20.0 / qblur=0.5 / vbv_maxrate=62500 / vbv_bufsize=78125 / nal_hrd=none / filler=0 / ip_ratio=1.40 / aq=1:1.00
    7 |3 v  K" K) x, p8 V5 [: R+ [% m
  25. Default                                  : Yes  a' v, o6 h" b+ J% e5 i
  26. Forced                                   : No
    ; V' @5 A) j5 d& V/ X- c

  27. 3 `# s$ I3 q! x
  28. Audio+ T7 }0 i$ E& l5 R3 \, x, O
  29. ID                                       : 2+ r' E# f) |8 U. h" @6 ^% E
  30. Format                                   : FLAC
    / E' i- x! p* R/ T+ E) T
  31. Format/Info                              : Free Lossless Audio Codec
    ; @, i. @% @0 Z1 w1 Z; S! G8 g
  32. Codec ID                                 : A_FLAC# \) O, D' w$ k: e
  33. Duration                                 : 1 h 43 min
    9 \6 ?4 D: H7 p; H8 |  C
  34. Bit rate mode                            : Variable1 b/ u7 I6 i) s8 B
  35. Bit rate                                 : 643 kb/s; N2 s8 a0 X0 @: i" E4 |/ x
  36. Channel(s)                               : 1 channel+ r+ P# I3 m# A/ R& b
  37. Channel layout                           : C
    9 d1 z, |  L5 n
  38. Sampling rate                            : 48.0 kHz
    / Y$ `0 m% L4 W6 `- c
  39. Frame rate                               : 10.417 FPS (4608 SPF)
    % A( w& z# [2 F! g
  40. Bit depth                                : 24 bits( Z+ w. L2 z7 V  z8 N- K  N
  41. Compression mode                         : Lossless: W8 p/ I) a0 n* Y) ^5 h! Q, ~: L
  42. Stream size                              : 477 MiB (11%)8 q9 ]$ o: k0 t- {6 @; ?5 N
  43. Writing library                          : Lavf58.29.100$ Y. ^9 ?* [% x  i0 ?
  44. Language                                 : Persian
    * h% B! \  P$ u& F0 t! y; E3 u: c
  45. Default                                  : Yes' x. J+ z4 e/ m0 r6 T
  46. Forced                                   : No
    % N! [, t- g7 X5 H/ n( e6 r
  47. ! D6 Q- _  a" r
  48. Text
    & i, Y# }' d, O+ R/ |& O# v9 y
  49. ID                                       : 32 {. m1 d7 w+ F( I
  50. Format                                   : UTF-8+ T* \' @& r: ]1 H" Y( Y
  51. Codec ID                                 : S_TEXT/UTF8
    ' N: o* F4 D1 n9 w
  52. Codec ID/Info                            : UTF-8 Plain Text
    1 ^! U% x' r0 K, T+ v
  53. Duration                                 : 1 h 43 min
    7 f, T" K" G8 T3 C+ _
  54. Bit rate                                 : 53 b/s
    2 Q1 n7 \6 Z6 q" i% A
  55. Count of elements                        : 14567 s: o3 a+ F3 `- p: D$ j
  56. Stream size                              : 40.4 KiB (0%)" B! W- n2 Y/ L' j( R% F3 R* T
  57. Language                                 : English$ |# ^6 @7 `9 E1 p- y! w
  58. Default                                  : Yes
    1 W1 `5 E: h0 q7 \# t- L
  59. Forced                                   : No2 u, ]$ I  C4 ?& Z) ?% |1 V

  60. 1 \. i& V5 U) C4 J0 M8 m7 J
  61. Menu5 b) b# j0 y$ P1 R7 r
  62. 00:00:00.000                             : en:Chapter 01! y1 x! }% K5 T! r- X$ G, v
  63. 00:03:52.274                             : en:Chapter 02
    9 D) T: z" J5 P. C0 v/ ]
  64. 00:04:50.499                             : en:Chapter 03
    3 x: H* w7 @7 f/ _* v. z& C2 {
  65. 00:08:54.242                             : en:Chapter 04$ I" y4 F6 C7 Z- H0 V* L8 c
  66. 00:15:44.777                             : en:Chapter 05
    5 E. @% X/ g6 X, h6 P# p: Z. M
  67. 00:19:46.227                             : en:Chapter 061 S, R9 q( w: r, m$ ~( r
  68. 00:25:56.722                             : en:Chapter 07; }% O0 s* X  P
  69. 00:34:02.165                             : en:Chapter 08
      ~+ R4 h# g5 G$ O$ |
  70. 00:40:51.866                             : en:Chapter 095 @; {1 P  t# z1 ]/ @9 e4 D
  71. 00:46:52.852                             : en:Chapter 10
    ; _" ], N( t1 m) N+ r
  72. 00:51:55.029                             : en:Chapter 11
    7 }6 q! n- k. f7 ~. A. U
  73. 00:59:57.511                             : en:Chapter 12
    . V) G$ t; K/ {
  74. 01:04:07.469                             : en:Chapter 13- F# ^, ]& G7 Y; m
  75. 01:09:57.276                             : en:Chapter 14
    $ x; @! K  w; R3 s; R4 F
  76. 01:18:33.626                             : en:Chapter 157 F; b1 |+ Z6 I) ?2 d4 h. F
  77. 01:22:20.769                             : en:Chapter 16% {3 Q) h) w, K' g+ w+ W& {
  78. 01:27:36.626                             : en:Chapter 17! d+ [2 {: f- H" U
  79. 01:30:53.448                             : en:Chapter 18
    $ I+ [) t% S6 P% q5 I& k; u* ]
  80. 01:37:08.031                             : en:Chapter 19
    , q. d; R) n( b
  81. 01:42:08.456                             : en:Chapter 20
复制代码

2 V( Q) @5 R) B1 X" V/ e 204955ggagus5ssrdnaoko.png
3 C( B# Q% T7 z+ K) s/ q- P. v
" S5 f& M2 S$ d6 l- J: G) G
# i8 C$ s7 l% {- z6 L0 s, z( \. x! c  s

8 c' @# X: E1 Q, ?) v$ {
* i/ t4 O0 Y- b8 y) ?
: Q& G; v- \( e' T2 f# N  X1 I9 L. h: ?8 A
VIP会员免费任意下载本站所有资源!---点击开通
回复

使用道具 举报

级别:一举成名 Lv.7

注册时间
2019-4-24
最后登录
2019-11-14
听众
13
收听
0
主题
0
蓝光币
194 枚
贡献
0 点
发表于 7 天前 | 显示全部楼层
楼主发贴辛苦了,谢谢楼主分享!我觉得中国高清电影网是注册对了!
VIP会员免费任意下载本站所有资源!---点击开通
回复

使用道具 举报

懒得打字嘛,点击右侧快捷回复 【右侧内容,后台自定义】
您需要登录后才可以回帖 登录 | 立即注册

本版积分规则

QQ|Archiver|手机版|小黑屋| 中国高清网 |网站地图 

GMT+8, 2019-11-15 20:18 , Processed in 0.258447 second(s), 37 queries .

Powered by HDchina X3.4

Copyright 2017-2019©HDchina.All right reserved

返回顶部 联系我们