查看: 9|回复: 0

[动画片] 小马国女孩 一波三折的友谊 My.Little.Pony.Equestria.Girls.Rollercoaster.of.Friendship.2018.1080p.NF.WEBRip.DDP5.1.x264-LAZY 1.27GB

[复制链接]

 成长值: 3160

级别:资源管理组

注册时间
2017-10-20
最后登录
2019-11-11
听众
1
收听
0
主题
86761
蓝光币
61861 枚
贡献
11119 点
发表于 2019-11-7 20:49:12 | 显示全部楼层 |阅读模式
小马国女孩 一波三折的友谊 My.Little.Pony.Equestria.Girls.Rollercoaster.of.Friendship.2018.1080p.NF.WEBRip.DDP5.1.x264-LAZY 1.27GB-1.png

译  名 小马国女孩 一波三折的友谊
片  名 My Little Pony Equestria Girls: Rollercoaster of Friendship
年  代 2018
产  地 美国 / 加拿大 Canada
类  别 剧情 / 动画 / 歌舞 / 家庭 / 奇异
语  言 英语
上映日期 2018-07-06(美国)
IMDb评分  6.3/10 from 187 users
IMDb链接  https://www.imdb.com/title/tt8717590
豆瓣评分 0/10 from 0 users
豆瓣链接 https://movie.douban.com/subject/30316470/
片  长 44分钟
导  演 Ishi Rudell / Katrina Hadley
编  剧 Nick Confalone
主  演 阿什莉·鲍尔 Ashleigh Ball
       安德莉亚·利布曼 Andrea Libman
       Rebecca Shoichet
       塔比莎·杰曼 Tabitha St. Germain
       塔拉·斯特朗 Tara Strong
       泰根·摩斯 Tegan Moss
       詹姆斯·柯克 James Kirk
       山姆·文森特 Sam Vincent
       史葛·麦克尼尔 Scott McNeil
       Richard Newman
       Kazumi Evans


标  签 MLP | 美国动画 | 美国 | 动画:美国 | 动画 | 戏院版

简  介  

  自负网红做总监,魔法手秘密上天。一波三折冲突起,好友豪情遇危险。
  瑞瑞获得了去主题公园出任打扮设想师的机遇,她约请朋友们在开张第一天去见证她的劳动功效。但当大师到了今后,阿杰发觉瑞瑞的下属有题目,还和瑞瑞闹了冲突,而同时朋友们一个个堕入了险境。瑞瑞和阿杰能化解冲突,将朋友们解救出来,并阻止BOSS的诡计吗?
  1. Video
  2. ID                                       : 1
  3. Format                                   : AVC
  4. Format/Info                              : Advanced Video Codec
  5. Format profile                           : High@L4
  6. Format settings                          : CABAC / 3 Ref Frames
  7. Format settings, CABAC                   : Yes
  8. Format settings, Reference frames        : 3 frames
  9. Codec ID                                 : V_MPEG4/ISO/AVC
  10. Duration                                 : 44 min 4 s
  11. Bit rate mode                            : Variable
  12. Bit rate                                 : 3 480 kb/s
  13. Maximum bit rate                         : 5 220 kb/s
  14. Width                                    : 1 920 pixels
  15. Height                                   : 1 080 pixels
  16. Display aspect ratio                     : 16:9
  17. Frame rate mode                          : Constant
  18. Frame rate                               : 23.976 (24000/1001) FPS
  19. Color space                              : YUV
  20. Chroma subsampling                       : 4:2:0
  21. Bit depth                                : 8 bits
  22. Scan type                                : Progressive
  23. Bits/(Pixel*Frame)                       : 0.070
  24. Stream size                              : 1.07 GiB (84%)
  25. Writing library                          : x264 core 148 r2715 7e75228
  26. Encoding settings                        : cabac=1 / ref=3 / deblock=1:0:0 / analyse=0x1:0x111 / me=umh / subme=10 / psy=1 / psy_rd=1.00:0.00 / mixed_ref=1 / me_range=24 / chroma_me=1 / trellis=2 / 8x8dct=0 / cqm=0 / deadzone=21,11 / fast_pskip=1 / chroma_qp_offset=-2 / threads=8 / lookahead_threads=1 / sliced_threads=0 / nr=0 / decimate=1 / interlaced=0 / bluray_compat=0 / stitchable=1 / constrained_intra=0 / bframes=2 / b_pyramid=0 / b_adapt=2 / b_bias=0 / direct=3 / weightb=1 / open_gop=0 / weightp=2 / keyint=48 / keyint_min=25 / scenecut=0 / intra_refresh=0 / rc_lookahead=48 / rc=2pass / mbtree=1 / bitrate=3480 / ratetol=1.0 / qcomp=0.50 / qpmin=6 / qpmax=51 / qpstep=4 / cplxblur=20.0 / qblur=0.5 / vbv_maxrate=5220 / vbv_bufsize=6960 / nal_hrd=vbr / filler=0 / ip_ratio=1.40 / aq=1:1.00
  27. Default                                  : Yes
  28. Forced                                   : No

  29. Audio
  30. ID                                       : 2
  31. Format                                   : E-AC-3
  32. Format/Info                              : Enhanced AC-3
  33. Commercial name                          : Dolby Digital Plus
  34. Codec ID                                 : A_EAC3
  35. Duration                                 : 44 min 5 s
  36. Bit rate mode                            : Constant
  37. Bit rate                                 : 640 kb/s
  38. Channel(s)                               : 6 channels
  39. Channel layout                           : L R C LFE Ls Rs
  40. Sampling rate                            : 48.0 kHz
  41. Frame rate                               : 31.250 FPS (1536 SPF)
  42. Compression mode                         : Lossy
  43. Stream size                              : 202 MiB (16%)
  44. Language                                 : English
  45. Service kind                             : Complete Main
  46. Default                                  : Yes
  47. Forced                                   : No

  48. Text
  49. ID                                       : 3
  50. Format                                   : UTF-8
  51. Codec ID                                 : S_TEXT/UTF8
  52. Codec ID/Info                            : UTF-8 Plain Text
  53. Duration                                 : 43 min 38 s
  54. Bit rate                                 : 92 b/s
  55. Count of elements                        : 1519
  56. Stream size                              : 29.7 KiB (0%)
  57. Language                                 : English
  58. Default                                  : No
  59. Forced                                   : No
复制代码

小马国女孩 一波三折的友谊 My.Little.Pony.Equestria.Girls.Rollercoaster.of.Friendship.2018.1080p.NF.WEBRip.DDP5.1.x264-LAZY 1.27GB-2.png 小马国女孩 一波三折的友谊 My.Little.Pony.Equestria.Girls.Rollercoaster.of.Friendship.2018.1080p.NF.WEBRip.DDP5.1.x264-LAZY 1.27GB-3.png 小马国女孩 一波三折的友谊 My.Little.Pony.Equestria.Girls.Rollercoaster.of.Friendship.2018.1080p.NF.WEBRip.DDP5.1.x264-LAZY 1.27GB-4.png







VIP会员免费任意下载本站所有资源!---点击开通
回复

使用道具 举报

懒得打字嘛,点击右侧快捷回复 【右侧内容,后台自定义】
您需要登录后才可以回帖 登录 | 立即注册

本版积分规则

QQ|Archiver|手机版|小黑屋| 中国高清网 |网站地图 

GMT+8, 2019-11-15 11:03 , Processed in 0.219732 second(s), 37 queries .

Powered by HDchina X3.4

Copyright 2017-2019©HDchina.All right reserved

返回顶部 联系我们