查看: 62|回复: 3

[冒险片] 爱探险的朵拉:消失的黄金城 Dora.and.the.Lost.City.of.Gold.2019.1080p.BluRay.x264-DRONES 6.57GB

[复制链接]

 成长值: 3140

级别:资源管理组

注册时间
2017-10-20
最后登录
2019-11-11
听众
1
收听
0
主题
86761
蓝光币
61615 枚
贡献
11119 点
发表于 6 天前 | 显示全部楼层 |阅读模式
204207n23dhjddzdvz2edd.png

译  名 爱探险的朵拉:消失的黄金城 / Dora the Explorer / 朵拉与失落的黄金城 / 爱探险的Dora:勇闯黄金迷城(港) / 爱探险的朵拉
片  名 Dora and the Lost City of Gold
年  代 2019
产  地 美国
类  别 冒险
语  言 英语
上映日期 2019-08-09(美国)
IMDb评分  6.1/10 from 6012 users
IMDb链接  https://www.imdb.com/title/tt7547410
豆瓣评分 5.5/10 from 218 users
豆瓣链接 https://movie.douban.com/subject/27179713/
片  长 100分钟
导  演 詹姆斯·博宾 James Bobin
编  剧 马修·罗宾逊 Matthew Robinson / 尼古拉斯·斯托勒 Nicholas Stoller / 克里斯·吉福德 Chris Gifford / 瓦莱丽·沃尔什 Valerie Walsh / 埃里克·韦纳 Eric Weiner / 汤姆·惠勒 Tom Wheeler
主  演 伊莎贝拉·莫奈 Isabela Moner
       迈克尔·佩纳 Michael Pe?a
       本尼西奥·德尔·托罗 Benicio del Toro
       考莉安卡·基尔彻 Q'orianka Kilcher
       伊娃·朗格利亚 Eva Longoria
       特穆拉·莫里森 Temuera Morrison
       欧赫尼奥·德尔维斯 Eugenio Derbez
       玛德琳·麦登 Madeleine Madden
       艾德里安娜·巴拉扎 Adriana Barraza
       伊瑟拉·维加 Isela Vega
       克里斯托弗·卡比 Christopher Kirby
       尼古拉斯·库姆 Nicholas Coombe
       布拉登·刘易斯 Braden Lewis
       杰弗里·沃尔伯格 Jeffrey Wahlberg


标  签 冒险 | 美国 | 2019 | 爱探险的朵拉 | 奇异 | 魔幻 | 派拉蒙 | 搞笑

简  介  

  朵拉和怙恃一向生活在森林中,直到有天她的怙恃决议去寻觅传闻中失落的黄金城,而朵拉则被迫回到都会,与表哥迭戈一家人同住,起头了一段啼笑皆非的高中生活。
  在一次黉舍构造的参观活动中,朵拉和朋友们被奥秘人士绑架,他们被带到了森林深处。回到森林的朵拉,展现出了比其他人更强的保存才能。她率领着小猴布茨,表哥迭戈,奥秘的森林专家和一群毫无田野经历的朋友们起头了一段惊险的冒险旅程。他们不但要在幻化莫测的森林中保存下来,更要从好人手中救出朵拉的怙恃,破解黄金城的奥秘。
  1. Video
  2. ID                                       : 1
  3. Format                                   : AVC
  4. Format/Info                              : Advanced Video Codec
  5. Format profile                           : High@L4
  6. Format settings                          : CABAC / 5 Ref Frames
  7. Format settings, CABAC                   : Yes
  8. Format settings, Reference frames        : 5 frames
  9. Codec ID                                 : V_MPEG4/ISO/AVC
  10. Duration                                 : 1 h 42 min
  11. Bit rate                                 : 8 523 kb/s
  12. Width                                    : 1 920 pixels
  13. Height                                   : 800 pixels
  14. Display aspect ratio                     : 2.40:1
  15. Frame rate mode                          : Constant
  16. Frame rate                               : 23.976 (24000/1001) FPS
  17. Color space                              : YUV
  18. Chroma subsampling                       : 4:2:0
  19. Bit depth                                : 8 bits
  20. Scan type                                : Progressive
  21. Bits/(Pixel*Frame)                       : 0.231
  22. Stream size                              : 6.10 GiB (93%)
  23. Writing library                          : x264 core 158 r2988 7817004
  24. Encoding settings                        : cabac=1 / ref=5 / deblock=1:-3:-3 / analyse=0x3:0x113 / me=umh / subme=8 / psy=1 / psy_rd=1.00:0.00 / mixed_ref=1 / me_range=16 / chroma_me=1 / trellis=1 / 8x8dct=1 / cqm=0 / deadzone=21,11 / fast_pskip=1 / chroma_qp_offset=-2 / threads=25 / lookahead_threads=4 / sliced_threads=0 / nr=0 / decimate=1 / interlaced=0 / bluray_compat=0 / constrained_intra=0 / bframes=3 / b_pyramid=2 / b_adapt=1 / b_bias=0 / direct=3 / weightb=1 / open_gop=0 / weightp=2 / keyint=250 / keyint_min=23 / scenecut=40 / intra_refresh=0 / rc_lookahead=50 / rc=2pass / mbtree=1 / bitrate=8523 / ratetol=1.0 / qcomp=0.60 / qpmin=0 / qpmax=69 / qpstep=4 / cplxblur=20.0 / qblur=0.5 / ip_ratio=1.40 / aq=1:1.00
  25. Language                                 : English
  26. Default                                  : Yes
  27. Forced                                   : No

  28. Audio
  29. ID                                       : 2
  30. Format                                   : AC-3
  31. Format/Info                              : Audio Coding 3
  32. Commercial name                          : Dolby Digital
  33. Codec ID                                 : A_AC3
  34. Duration                                 : 1 h 42 min
  35. Bit rate mode                            : Constant
  36. Bit rate                                 : 640 kb/s
  37. Channel(s)                               : 6 channels
  38. Channel layout                           : L R C LFE Ls Rs
  39. Sampling rate                            : 48.0 kHz
  40. Frame rate                               : 31.250 FPS (1536 SPF)
  41. Bit depth                                : 16 bits
  42. Compression mode                         : Lossy
  43. Stream size                              : 469 MiB (7%)
  44. Language                                 : English
  45. Service kind                             : Complete Main
  46. Default                                  : Yes
  47. Forced                                   : No

  48. Text
  49. ID                                       : 3
  50. Format                                   : UTF-8
  51. Codec ID                                 : S_TEXT/UTF8
  52. Codec ID/Info                            : UTF-8 Plain Text
  53. Duration                                 : 1 h 32 min
  54. Bit rate                                 : 0 b/s
  55. Count of elements                        : 24
  56. Stream size                              : 554 Bytes (0%)
  57. Title                                    : English-Forced
  58. Language                                 : English
  59. Default                                  : Yes
  60. Forced                                   : Yes

  61. Menu
  62. 00:00:00.000                             : en:00:00:00.000
  63. 00:04:52.417                             : en:00:04:52.417
  64. 00:09:49.088                             : en:00:09:49.088
  65. 00:15:35.643                             : en:00:15:35.643
  66. 00:20:26.767                             : en:00:20:26.767
  67. 00:25:47.838                             : en:00:25:47.838
  68. 00:35:15.780                             : en:00:35:15.780
  69. 00:42:53.738                             : en:00:42:53.738
  70. 00:47:13.664                             : en:00:47:13.664
  71. 00:52:57.883                             : en:00:52:57.883
  72. 00:55:41.463                             : en:00:55:41.463
  73. 01:01:02.659                             : en:01:01:02.659
  74. 01:06:11.301                             : en:01:06:11.301
  75. 01:10:23.136                             : en:01:10:23.136
  76. 01:13:52.136                             : en:01:13:52.136
  77. 01:18:26.327                             : en:01:18:26.327
  78. 01:22:39.496                             : en:01:22:39.496
  79. 01:32:57.322                             : en:01:32:57.322
  80. 01:38:30.238                             : en:01:38:30.238
复制代码

爱探险的朵拉:消失的黄金城 Dora.and.the.Lost.City.of.Gold.2019.1080p.BluRay.x264-DRONES 6.57GB-2.png







VIP会员免费任意下载本站所有资源!---点击开通
回复

使用道具 举报

级别:普通观众 Lv.2

注册时间
2019-10-27
最后登录
2019-11-11
听众
0
收听
0
主题
0
蓝光币
20 枚
贡献
0 点
发表于 6 天前 | 显示全部楼层
楼主发贴辛苦了,谢谢楼主分享!我觉得中国高清电影网是注册对了!
VIP会员免费任意下载本站所有资源!---点击开通
回复

使用道具 举报

级别:一举成名 Lv.7

注册时间
2019-4-24
最后登录
2019-11-13
听众
13
收听
0
主题
0
蓝光币
194 枚
贡献
0 点
发表于 5 天前 | 显示全部楼层
楼主发贴辛苦了,谢谢楼主分享!我觉得中国高清电影网是注册对了!
VIP会员免费任意下载本站所有资源!---点击开通
回复

使用道具 举报

级别:专业龙套 Lv.4

注册时间
2019-1-22
最后登录
2019-11-10
听众
13
收听
0
主题
0
蓝光币
134 枚
贡献
0 点
发表于 3 天前 | 显示全部楼层
楼主发贴辛苦了,谢谢楼主分享!我觉得中国高清电影网是注册对了!
VIP会员免费任意下载本站所有资源!---点击开通
回复

使用道具 举报

懒得打字嘛,点击右侧快捷回复 【右侧内容,后台自定义】
您需要登录后才可以回帖 登录 | 立即注册

本版积分规则

QQ|Archiver|手机版|小黑屋| 中国高清网 |网站地图 

GMT+8, 2019-11-13 18:28 , Processed in 40.529013 second(s), 37 queries .

Powered by HDchina X3.4

Copyright 2017-2019©HDchina.All right reserved

返回顶部 联系我们