查看: 53|回复: 2

[剧情片] 深夜秀/夜深时 Late.Night.2019.720p.BluRay.x264.DTS-FGT 4.98GB

[复制链接]

 成长值: 3210

级别:资源管理组

注册时间
2017-10-20
最后登录
2019-11-20
听众
1
收听
0
主题
87221
蓝光币
63004 枚
贡献
11580 点
发表于 2019-11-7 11:36:20 | 显示全部楼层 |阅读模式
深夜秀/夜深时 Late.Night.2019.720p.BluRay.x264.DTS-FGT 4.98GB-1.png / o& N/ f/ b1 |( r5 ?0 X/ }+ `$ _+ ?
" U% x# M7 P, @3 R- T. V; l
译  名 深夜秀 / 夜深时
; i- |  Q6 C9 e( p+ u0 l片  名 Late Night" e: y" @3 Z+ G" r" u
年  代 2019
2 _3 y, ?. C/ S8 @产  地 美国8 w- Y+ ~' ~5 n: @
类  别 剧情 / 笑剧; j8 g8 O8 ]7 T2 c5 k
语  言 英语. ^1 S( ~0 h: D4 C
上映日期 2019-01-25(圣丹斯电影节) / 2019-06-07(美国)+ c+ _6 W# I+ m2 h: C* B
IMDb评分  6.5/10 from 4780 users7 {+ M: \' O/ P1 p* \  @0 ~. C5 Q
IMDb链接  http://www.imdb.com/title/tt6107548
  I$ m3 R8 E$ ]; ~$ l豆瓣评分 7.0/10 from 265 users; q. b! V* r5 p8 P; d, w
豆瓣链接 https://movie.douban.com/subject/27109401/
: e1 }' Q, S/ `7 f片  长 102分钟(圣丹斯电影节)+ d& Z! F4 r! t9 B. U; l' Q
导  演 尼萨·加纳特 Nisha Ganatra
7 |' M5 D7 c! n9 ?; t) f6 }( E0 o, H编  剧 敏迪·卡灵 Mindy Kaling
, F2 Z0 ~& k5 T% h( Q8 N3 @主  演 艾玛·汤普森 Emma Thompson3 {7 ]3 T# S0 A# T9 _8 _1 V
       敏迪·卡灵 Mindy Kaling
( p5 E7 B$ Z1 ]/ x2 s       约翰·利思戈 John Lithgow
6 d3 x, A  |  S: b4 z; x& [3 j9 w       休·丹西 Hugh Dancy+ Z% r: _) w$ v# w" \) n( \8 m
       伊克·巴里霍尔兹 Ike Barinholtz) p9 E" F! \: R  D2 ]+ b2 `
       梅歌林·艾奇坤沃克 Megalyn Echikunwoke
1 J* d+ f6 U4 @2 y* C, V6 b7 ~/ F       艾米·莱安 Amy Ryan! Y3 S& A8 N$ ]" A& R
       马克斯·凯塞拉 Max Casella% K, \6 Z# K) c& p! Y
       保罗·沃尔特·豪泽 Paul Walter Hauser. o7 w$ C4 i" T% D" J' A  m  \3 U3 b
       瑞德·斯科特 Reid Scott! O! V1 Z: m# ~' x, M# t
       丹尼斯·欧哈拉 Denis O'Hare
  l. X  }! B/ P       费斯·洛根 Faith Logan
2 z+ c6 N/ u( r6 d0 U/ R* [       约翰·厄尔利 John Early
8 p" V7 K- \: @/ c: L       桃乐丝·麦卡锡 Doris McCarthy& L1 O! s. |. b
       卢克·斯拉特里 Luke Slattery
# s/ a" R  y4 ~, Y9 z# S8 k! j6 J       格里高利·迈克尔 Gregory Mikell
) @3 d2 }9 q$ h       Rupak Ginn
/ f" A% M! `* a' r: Z# G6 y1 l+ Q* G! m
5 B, \% c6 a8 F) q( h
标  签 笑剧 | 女性 | EmmaThompson | 美国 | 2019 | 脱口秀 | 电影 | 艾玛·汤普森
* g) J$ G  t! T& w* o, _
- G  p0 G, ^9 \1 A$ j( f  p4 ]. f. g/ R( R简  介  
- |$ K) W9 T9 d7 r; Y# K6 ~/ r# D4 W& Q! g2 X) L
  艾玛·汤普森、敏迪·卡灵将参演30WEST、FilmNation打造的笑剧[夜深时](Late Night,暂译)。敏迪·卡灵还操刀剧本,尼萨·加纳特(《高玩救未来》)执导。报告一个行将落空工作的深夜脱口秀主持人(汤普森饰),当她招聘女性作家(卡灵饰)时,她的工作和生活似乎有了起色。该片将于四月展开拍摄。& s2 G9 \; `' e0 Q( g& M: T
  1. Video
    ( g" Z$ F3 I# s* o( F3 V# X/ l3 q
  2. ID                                       : 1) [6 V. @9 h" T1 }9 B) Y7 d* [
  3. Format                                   : AVC
    " @3 @" `3 a! D* {2 O7 V5 I
  4. Format/Info                              : Advanced Video Codec! b& n% B! g$ w/ [8 O
  5. Format profile                           : High@L4* ^- h& @# P$ R8 r: K/ ]2 ^6 O
  6. Format settings                          : CABAC / 4 Ref Frames9 {/ @$ b/ B9 ]1 i) [! s' c
  7. Format settings, CABAC                   : Yes
    5 @. Y) [  t1 W
  8. Format settings, Reference frames        : 4 frames
    % d& ?( C6 C, S' K5 Y, Z5 r" R& M
  9. Codec ID                                 : V_MPEG4/ISO/AVC
    * S- s+ x* Y$ s7 r. B
  10. Duration                                 : 1 h 41 min
    : r, P% y1 |7 c0 Y0 I# T$ p) r
  11. Bit rate                                 : 5 500 kb/s# G- ]) S1 k9 g3 H
  12. Width                                    : 1 280 pixels' b7 T" i# y) t6 c
  13. Height                                   : 690 pixels' B& h" \9 @* n
  14. Display aspect ratio                     : 1.85:1
    5 y' [8 E# `, I4 A6 v7 }
  15. Original display aspect ratio            : 1.85:1
    ! @2 E' n2 t* Y, z( i3 b
  16. Frame rate mode                          : Constant1 O8 V/ c5 [2 s+ L+ a
  17. Frame rate                               : 23.976 (24000/1001) FPS
    # N9 T( M# g) K, @- t) e% ?
  18. Color space                              : YUV* u# n+ M7 T/ x3 h
  19. Chroma subsampling                       : 4:2:0
    & Y+ N& @9 d- e+ Y- ?( h
  20. Bit depth                                : 8 bits% f& P# C. n4 W- v% O* S& g
  21. Scan type                                : Progressive
    ' h# M3 ^! I# P1 W) O1 H
  22. Bits/(Pixel*Frame)                       : 0.260
    . Q7 v: G* n: T+ o( ^
  23. Stream size                              : 3.91 GiB (78%)
      x7 D2 j0 K; q7 O/ a4 \
  24. Title                                    : Late.Night.2019.720p.BluRay.x264.DTS-FGT
    6 P' V% N. X# f2 m: C: L2 C
  25. Writing library                          : x264 core 148 r2795M aaa9aa8
    3 R/ P, s  b: G8 q' d
  26. Encoding settings                        : cabac=1 / ref=4 / deblock=1:-2:-2 / analyse=0x3:0x113 / me=umh / subme=9 / psy=1 / psy_rd=1.00:0.15 / mixed_ref=1 / me_range=16 / chroma_me=1 / trellis=2 / 8x8dct=1 / cqm=0 / deadzone=21,11 / fast_pskip=1 / chroma_qp_offset=-3 / threads=24 / lookahead_threads=3 / sliced_threads=0 / nr=0 / decimate=1 / interlaced=0 / bluray_compat=0 / constrained_intra=0 / bframes=3 / b_pyramid=2 / b_adapt=1 / b_bias=0 / direct=3 / weightb=1 / open_gop=0 / weightp=2 / keyint=250 / keyint_min=25 / scenecut=40 / intra_refresh=0 / rc_lookahead=50 / rc=2pass / mbtree=1 / bitrate=5500 / ratetol=1.0 / qcomp=0.60 / qpmin=0 / qpmax=69 / qpstep=4 / cplxblur=20.0 / qblur=0.5 / vbv_maxrate=31250 / vbv_bufsize=31250 / nal_hrd=none / filler=0 / ip_ratio=1.40 / aq=1:1.00! M* _" g! u0 g' k1 d4 x
  27. Language                                 : English
    ' O% I  j; t2 F1 l
  28. Default                                  : Yes
    3 L2 G% R( q0 Y1 Z) ?; Q" m
  29. Forced                                   : No; _4 i  W. b4 i& }: V8 q3 U
  30. 3 S. f0 I4 W! V8 Q
  31. Audio
    & g/ d6 V$ B/ G/ O  |/ Q
  32. ID                                       : 2
    3 {+ a6 U/ E8 m- F2 Y" `
  33. Format                                   : DTS
      V, a. g2 [0 R, E2 ?
  34. Format/Info                              : Digital Theater Systems
    9 c5 I  M! w( k" b; ]$ h
  35. Codec ID                                 : A_DTS% F- L' v( y$ w: B* s& x! d
  36. Duration                                 : 1 h 41 min
    7 h0 S6 b; z9 R/ A  b8 P
  37. Bit rate mode                            : Constant5 j. w* c# p# K/ A! q5 g  k
  38. Bit rate                                 : 1 509 kb/s
    2 t" J$ a* c/ ]7 ?$ F# L% x* X
  39. Channel(s)                               : 6 channels
    . w0 A; N! L3 B; I& U
  40. Channel layout                           : C L R Ls Rs LFE
    / r- F; X9 Y7 d$ v& ~* {
  41. Sampling rate                            : 48.0 kHz
    $ ]' V; a8 `+ |  F$ d
  42. Frame rate                               : 93.750 FPS (512 SPF)
    5 @( n: A* P, _$ U3 @( p
  43. Bit depth                                : 16 bits
    + G! \! A7 l4 h4 s9 E
  44. Compression mode                         : Lossy3 b& p" A) w, [. W" b- W& {
  45. Stream size                              : 1.07 GiB (22%)
    : Y/ m" j( E( g* D$ m! M
  46. Title                                    : Late.Night.2019.720p.BluRay.x264.DTS-FGT
    0 V' y- Y% _/ k6 ]' q4 F8 c
  47. Language                                 : English0 Z! n, R- ~) S0 s' O$ {& N
  48. Default                                  : Yes
    $ ]* T2 L8 n2 B: L( @# D: j3 Y* _) y
  49. Forced                                   : No5 e& G" e% z, F+ C! ~% m) m
  50. 7 M& e# Y  Y5 ^4 b
  51. Text, p9 s: U% B  E  P' X5 a; ^
  52. ID                                       : 3( A2 O" n, J% [+ t% k. D3 m9 d
  53. Format                                   : UTF-8
    ' K8 N. D# @( N/ I
  54. Codec ID                                 : S_TEXT/UTF8. Z6 F5 t2 ]) o* ^; Y
  55. Codec ID/Info                            : UTF-8 Plain Text' [# k) z' D( v7 I) C( l
  56. Duration                                 : 1 h 39 min3 p7 U& k4 X+ o: h
  57. Bit rate                                 : 104 b/s) q& ?( n0 E3 N3 I6 \
  58. Count of elements                        : 2134
    5 j/ n2 }9 [1 f+ @: Y5 M4 F
  59. Stream size                              : 76.1 KiB (0%)
    5 ~* \; @: E+ Z4 Y1 A5 K
  60. Language                                 : English
    7 Q3 _6 ~2 B4 s* r6 n8 f' G
  61. Default                                  : Yes. |/ w, Y" Y" L( c
  62. Forced                                   : No
    2 a1 w7 H# I1 O! x1 ~1 j
  63. & g" k# c+ G+ R6 @: d
  64. Menu
    $ {5 W- Y( u6 N
  65. 00:00:00.000                             : en:Chapter 1
    ( |: u9 Y% o( W; c6 j. J
  66. 00:09:51.716                             : en:Chapter 2: _8 \; \0 x# w# n
  67. 00:16:43.961                             : en:Chapter 3
    / V) S1 W# d* X$ s) _/ I' p% q
  68. 00:24:45.692                             : en:Chapter 4  R, t' t* A. v& y/ C0 w
  69. 00:33:04.649                             : en:Chapter 5
    ) g2 D/ {$ ]9 x$ |) D( x& R, }
  70. 00:40:45.568                             : en:Chapter 6
    ; q. i- ^: j1 y, ?) Q9 Y
  71. 00:51:39.513                             : en:Chapter 71 I+ Z2 s. i) K! c5 C! r
  72. 01:02:18.943                             : en:Chapter 8+ b+ H2 u3 X- @* b- h
  73. 01:10:30.226                             : en:Chapter 96 W/ Q! B9 ^5 X# h0 V( ?4 M* N
  74. 01:19:15.959                             : en:Chapter 10" Y. ~7 e: V& _; F# H; U
  75. 01:26:09.789                             : en:Chapter 11
    & e) v3 X- R$ ^+ `4 n: `
  76. 01:36:31.202                             : en:Chapter 12
复制代码
& u) N" h3 y8 d4 e# x: i
深夜秀/夜深时 Late.Night.2019.720p.BluRay.x264.DTS-FGT 4.98GB-2.png 深夜秀/夜深时 Late.Night.2019.720p.BluRay.x264.DTS-FGT 4.98GB-3.png 深夜秀/夜深时 Late.Night.2019.720p.BluRay.x264.DTS-FGT 4.98GB-4.png % {4 L* ]9 e" u$ z- Y& [( U4 ^, p/ a; q. U
4 k, t8 w$ g' a: g+ _- Z5 @
  h1 L- D8 K. s) O

. W1 J1 p1 d! ]3 d: W/ m) x1 u# c
% z- h- ]6 n; x# ~4 u3 B6 e) E( r( s6 f0 D4 @# }* [
( q5 M6 A" U; o; z( Q

. h+ d( _) |0 X4 m& ]/ N2 D
VIP会员免费任意下载本站所有资源!---点击开通
回复

使用道具 举报

级别:一举成名 Lv.7

注册时间
2019-4-24
最后登录
2019-11-19
听众
13
收听
0
主题
0
蓝光币
197 枚
贡献
0 点
发表于 2019-11-8 10:52:17 | 显示全部楼层
楼主发贴辛苦了,谢谢楼主分享!我觉得中国高清电影网是注册对了!
VIP会员免费任意下载本站所有资源!---点击开通
回复

使用道具 举报

级别:普通观众 Lv.2

注册时间
2019-8-11
最后登录
2019-11-19
听众
1
收听
0
主题
0
蓝光币
7 枚
贡献
0 点
发表于 前天 23:40 | 显示全部楼层
楼主发贴辛苦了,谢谢楼主分享!我觉得中国高清电影网是注册对了!
VIP会员免费任意下载本站所有资源!---点击开通
回复

使用道具 举报

懒得打字嘛,点击右侧快捷回复 【右侧内容,后台自定义】
您需要登录后才可以回帖 登录 | 立即注册

本版积分规则

QQ|Archiver|手机版|小黑屋| 中国高清网 |网站地图

GMT+8, 2019-11-20 09:02 , Processed in 0.279499 second(s), 37 queries .

Powered by HDchina X3.4

Copyright 2017-2019©HDchina.All right reserved

返回顶部 联系我们