查看: 123|回复: 2

[剧情片] 西游记 Monkey.Magic.2007.1080p.BluRay.x264-HDDEViLS 7.94GB

[复制链接]

 成长值: 3160

级别:资源管理组

注册时间
2017-10-20
最后登录
2019-11-15
听众
1
收听
0
主题
86768
蓝光币
61946 枚
贡献
11126 点
发表于 2019-11-7 00:39:45 | 显示全部楼层 |阅读模式
西游记 Monkey.Magic.2007.1080p.BluRay.x264-HDDEViLS 7.94GB-1.png

译  名 西游记
片  名 西遊記
年  代 2007
产  地 日本
类  别 历史 / 冒险
语  言 日语
上映日期 2007-07-14(日本)
IMDb评分  4.9/10 from 260 users
IMDb链接  https://www.imdb.com/title/tt0938281
豆瓣评分 5.1/10 from 1515 users
豆瓣链接 https://movie.douban.com/subject/1979059/
片  长 120 分钟
导  演 泽田镰作 Kensaku Sawada
编  剧 坂元裕二 Y?ji Sakamoto
主  演 香取慎吾
       深津絵里
       内村光良
       伊藤淳史
       鹿賀丈史
       岸谷五朗


标  签 日本 | 日本电影 | 香取慎吾 | 笑剧 | 西游记 | 深津绘里 | 搞笑 | 2007

简  介  

  话说大唐高僧唐三藏(深津绘里 饰)在三个徒弟孙悟空(香取慎吾 饰)、猪八戒(伊藤淳史 饰)、沙悟净(内村光良 饰)的庇护下前往西天求取大藏真经。师徒四人一路奔走风尘,历经千难万险,这一日来到了沙漠之国虎诚国。恰恰此前这个国家被金角(鹿贺丈史 饰)和银角(岸谷五朗 饰)两个魔鬼并吞,他们将国王(三谷幸喜 饰)以及王妃酿成了乌龟,还夺走国家内的森林和水源。幸存的公主玲美(多部未华子 饰)请求唐僧师徒赶走金角、银角。以此为契机,新的冒险行将展开,齐天大圣孙悟空行将再展神威……
  本片按照中国古典四台甫著之一的《西游记》改编。
  1. Video
  2. ID                                       : 1
  3. Format                                   : AVC
  4. Format/Info                              : Advanced Video Codec
  5. Format profile                           : High@L4
  6. Format settings                          : CABAC / 5 Ref Frames
  7. Format settings, CABAC                   : Yes
  8. Format settings, Reference frames        : 5 frames
  9. Codec ID                                 : V_MPEG4/ISO/AVC
  10. Duration                                 : 2 h 0 min
  11. Bit rate                                 : 8 800 kb/s
  12. Width                                    : 1 920 pixels
  13. Height                                   : 800 pixels
  14. Display aspect ratio                     : 2.40:1
  15. Frame rate mode                          : Constant
  16. Frame rate                               : 24.000 FPS
  17. Color space                              : YUV
  18. Chroma subsampling                       : 4:2:0
  19. Bit depth                                : 8 bits
  20. Scan type                                : Progressive
  21. Bits/(Pixel*Frame)                       : 0.239
  22. Stream size                              : 7.24 GiB (91%)
  23. Writing library                          : x264 core 67 r1165M 6841c5e
  24. Encoding settings                        : cabac=1 / ref=5 / deblock=1:0:0 / analyse=0x3:0x133 / me=umh / subme=7 / psy_rd=1.0:0.0 / mixed_ref=1 / me_range=16 / chroma_me=1 / trellis=1 / 8x8dct=1 / cqm=0 / deadzone=21,11 / chroma_qp_offset=-2 / threads=6 / nr=0 / decimate=0 / mbaff=0 / bframes=3 / b_pyramid=1 / b_adapt=1 / b_bias=0 / direct=1 / wpredb=1 / keyint=250 / keyint_min=25 / scenecut=40 / rc=2pass / bitrate=8800 / ratetol=1.0 / qcomp=0.60 / qpmin=10 / qpmax=51 / qpstep=4 / cplxblur=20.0 / qblur=0.5 / ip_ratio=1.40 / pb_ratio=1.30 / aq=1:1.00
  25. Language                                 : English
  26. Default                                  : Yes
  27. Forced                                   : No

  28. Audio
  29. ID                                       : 2
  30. Format                                   : AC-3
  31. Format/Info                              : Audio Coding 3
  32. Commercial name                          : Dolby Digital
  33. Codec ID                                 : A_AC3
  34. Duration                                 : 2 h 0 min
  35. Bit rate mode                            : Constant
  36. Bit rate                                 : 640 kb/s
  37. Channel(s)                               : 6 channels
  38. Channel layout                           : L R C LFE Ls Rs
  39. Sampling rate                            : 48.0 kHz
  40. Frame rate                               : 31.250 FPS (1536 SPF)
  41. Bit depth                                : 16 bits
  42. Compression mode                         : Lossy
  43. Stream size                              : 551 MiB (7%)
  44. Title                                    : Japanese
  45. Language                                 : Japanese
  46. Service kind                             : Complete Main
  47. Default                                  : Yes
  48. Forced                                   : No

  49. Text
  50. ID                                       : 3
  51. Format                                   : UTF-8
  52. Codec ID                                 : S_TEXT/UTF8
  53. Codec ID/Info                            : UTF-8 Plain Text
  54. Title                                    : English
  55. Language                                 : English
  56. Default                                  : Yes
  57. Forced                                   : No
复制代码

西游记 Monkey.Magic.2007.1080p.BluRay.x264-HDDEViLS 7.94GB-2.png 003912rg1zi2s08tas20z0.png 西游记 Monkey.Magic.2007.1080p.BluRay.x264-HDDEViLS 7.94GB-4.png







VIP会员免费任意下载本站所有资源!---点击开通
回复

使用道具 举报

级别:普通观众 Lv.2

注册时间
2019-11-4
最后登录
2019-11-13
听众
0
收听
0
主题
0
蓝光币
10 枚
贡献
0 点
发表于 2019-11-7 12:08:14 | 显示全部楼层
楼主发贴辛苦了,谢谢楼主分享!我觉得中国高清电影网是注册对了!
VIP会员免费任意下载本站所有资源!---点击开通
回复

使用道具 举报

级别:一举成名 Lv.7

注册时间
2019-4-24
最后登录
2019-11-14
听众
13
收听
0
主题
0
蓝光币
194 枚
贡献
0 点
发表于 7 天前 | 显示全部楼层
楼主发贴辛苦了,谢谢楼主分享!我觉得中国高清电影网是注册对了!
VIP会员免费任意下载本站所有资源!---点击开通
回复

使用道具 举报

懒得打字嘛,点击右侧快捷回复 【右侧内容,后台自定义】
您需要登录后才可以回帖 登录 | 立即注册

本版积分规则

QQ|Archiver|手机版|小黑屋| 中国高清网 |网站地图 

GMT+8, 2019-11-15 20:11 , Processed in 0.254100 second(s), 37 queries .

Powered by HDchina X3.4

Copyright 2017-2019©HDchina.All right reserved

返回顶部 联系我们