查看: 15|回复: 0

[剧情片] 我是大卫/送信到哥本哈根 I.Am.David.2003.1080p.AMZN.WEBRip.DDP5.1.x264-monkee 9.21GB

[复制链接]

 成长值: 3160

级别:资源管理组

注册时间
2017-10-20
最后登录
2019-11-15
听众
1
收听
0
主题
86768
蓝光币
61946 枚
贡献
11126 点
发表于 2019-11-6 23:18:59 | 显示全部楼层 |阅读模式
我是大卫/送信到哥本哈根 I.Am.David.2003.1080p.AMZN.WEBRip.DDP5.1.x264-monkee 9.21GB-1.png

译  名 我是大卫 / 送信到哥本哈根(台)
片  名 I Am David
年  代 2003
产  地 美国
类  别 剧情
语  言 英语
上映日期 2003-05-15
IMDb评分  7.2/10 from 6976 users
IMDb链接  https://www.imdb.com/title/tt0327919
豆瓣评分 8.3/10 from 2146 users
豆瓣链接 https://movie.douban.com/subject/1308972/
片  长 90 分钟
导  演 Paul Feig
编  剧 Paul Feig
主  演 Ben Tibber
       James Caviezel
       Joan Plowright


标  签 美国 | 人性 | 剧情 | 美国电影 | 我是大卫 | 少年 | 2003 | 典范

简  介  

  大卫(本·蒂伯Ben Tibber饰)是从小生活在保加利亚集合营里面的12岁孩子,里面的天下对于他来说是一个谜。他的怙恃已经死去,大卫对自己的身世一无所知,在营中唯一给他安慰的,是一位叫约翰的大人。但即使这样,大卫的脸上还是写着与年龄不相当的沧桑。
  直到有一天,大卫居然被奥秘放置逃狱,并接到了一个使命:他必须把信送到丹麦的哥本哈根,不要相信赖何人的吩咐,被他冷静记着。
  因而,大卫起头了他的漫漫征程。希腊、意大利、瑞士、丹麦,他必须攀山越岭远程跋涉,才能到达哥本哈根。在里面的天下,他获得了从未品味过的自在,遇上了善良暖和的人们。大卫在心中牢牢筑起的严重防备,在人情温泽下渐渐软化。人们帮助他消灾解困,度过厄险,手中信和路上美景,陪伴大卫通往哥本哈根。
  1. Video
  2. ID                                       : 1
  3. Format                                   : AVC
  4. Format/Info                              : Advanced Video Codec
  5. Format profile                           : High@L4
  6. Format settings                          : CABAC / 4 Ref Frames
  7. Format settings, CABAC                   : Yes
  8. Format settings, Reference frames        : 4 frames
  9. Codec ID                                 : V_MPEG4/ISO/AVC
  10. Duration                                 : 1 h 31 min
  11. Bit rate mode                            : Variable
  12. Bit rate                                 : 13.7 Mb/s
  13. Maximum bit rate                         : 15.0 Mb/s
  14. Width                                    : 1 920 pixels
  15. Height                                   : 1 080 pixels
  16. Display aspect ratio                     : 16:9
  17. Frame rate mode                          : Constant
  18. Frame rate                               : 23.976 (24000/1001) FPS
  19. Color space                              : YUV
  20. Chroma subsampling                       : 4:2:0
  21. Bit depth                                : 8 bits
  22. Scan type                                : Progressive
  23. Bits/(Pixel*Frame)                       : 0.276
  24. Stream size                              : 8.80 GiB (96%)
  25. Default                                  : Yes
  26. Forced                                   : No
  27. Color range                              : Limited
  28. Color primaries                          : BT.709
  29. Transfer characteristics                 : BT.709
  30. Matrix coefficients                      : BT.709

  31. Audio
  32. ID                                       : 2
  33. Format                                   : E-AC-3
  34. Format/Info                              : Enhanced AC-3
  35. Commercial name                          : Dolby Digital Plus
  36. Codec ID                                 : A_EAC3
  37. Duration                                 : 1 h 31 min
  38. Bit rate mode                            : Constant
  39. Bit rate                                 : 640 kb/s
  40. Channel(s)                               : 6 channels
  41. Channel layout                           : L R C LFE Ls Rs
  42. Sampling rate                            : 48.0 kHz
  43. Frame rate                               : 31.250 FPS (1536 SPF)
  44. Compression mode                         : Lossy
  45. Stream size                              : 420 MiB (4%)
  46. Language                                 : English
  47. Service kind                             : Complete Main
  48. Default                                  : Yes
  49. Forced                                   : No

  50. Text
  51. ID                                       : 3
  52. Format                                   : UTF-8
  53. Codec ID                                 : S_TEXT/UTF8
  54. Codec ID/Info                            : UTF-8 Plain Text
  55. Duration                                 : 1 h 26 min
  56. Bit rate                                 : 39 b/s
  57. Count of elements                        : 918
  58. Stream size                              : 25.2 KiB (0%)
  59. Language                                 : English
  60. Default                                  : No
  61. Forced                                   : No
复制代码

我是大卫/送信到哥本哈根 I.Am.David.2003.1080p.AMZN.WEBRip.DDP5.1.x264-monkee 9.21GB-2.png 我是大卫/送信到哥本哈根 I.Am.David.2003.1080p.AMZN.WEBRip.DDP5.1.x264-monkee 9.21GB-3.png 我是大卫/送信到哥本哈根 I.Am.David.2003.1080p.AMZN.WEBRip.DDP5.1.x264-monkee 9.21GB-4.png 我是大卫/送信到哥本哈根 I.Am.David.2003.1080p.AMZN.WEBRip.DDP5.1.x264-monkee 9.21GB-5.png 我是大卫/送信到哥本哈根 I.Am.David.2003.1080p.AMZN.WEBRip.DDP5.1.x264-monkee 9.21GB-6.png 我是大卫/送信到哥本哈根 I.Am.David.2003.1080p.AMZN.WEBRip.DDP5.1.x264-monkee 9.21GB-7.png







VIP会员免费任意下载本站所有资源!---点击开通
回复

使用道具 举报

懒得打字嘛,点击右侧快捷回复 【右侧内容,后台自定义】
您需要登录后才可以回帖 登录 | 立即注册

本版积分规则

QQ|Archiver|手机版|小黑屋| 中国高清网 |网站地图 

GMT+8, 2019-11-15 20:13 , Processed in 0.247085 second(s), 37 queries .

Powered by HDchina X3.4

Copyright 2017-2019©HDchina.All right reserved

返回顶部 联系我们