查看: 9|回复: 0

[剧情片] 亿万唱诗班 The.Fighting.Temptations.2003.1080p.AMZN.WEBRip.DDP5.1.x264-SiGMA 12.19GB

[复制链接]

 成长值: 3210

级别:资源管理组

注册时间
2017-10-20
最后登录
2019-11-20
听众
1
收听
0
主题
87221
蓝光币
63016 枚
贡献
11580 点
发表于 2019-11-6 23:08:21 | 显示全部楼层 |阅读模式
亿万唱诗班 The.Fighting.Temptations.2003.1080p.AMZN.WEBRip.DDP5.1.x264-SiGMA 12.19GB-1.png

译  名 亿万唱诗班 / The Fighting Temptations / 好战的引诱 / 应战引诱
片  名 The Fighting Temptations
年  代 2003
产  地 美国
类  别 剧情 / 笑剧 / 恋爱 / 音乐
语  言 英语
上映日期 2003-09-19
IMDb评分  5.5/10 from 6489 users
IMDb链接  https://www.imdb.com/title/tt0191133
豆瓣评分 6.6/10 from 376 users
豆瓣链接 https://movie.douban.com/subject/1308656/
片  长 123 分钟
导  演 乔纳森·林恩 Jonathan Lynn
编  剧 Elizabeth Hunter / Saladin K. Patterson
主  演 小库珀·古丁 Cuba Gooding Jr.
       碧昂丝·诺尔斯 Beyoncé Knowles


标  签 美国 | 音乐 | 笑剧 | 歌舞 | 美国电影 | 2003 | 恋爱 | 电影

简  介  

  达灵.福克斯在纽约一所广告公司做主管,有一天他忽然获得一个消息,住在故乡乔治亚州的婶婶归天,在遗言上指定他为财富继续人,但有一个附加条件:她要求达灵在乔治亚州组建一个灵歌独唱团。达灵在当地筹划了很久,但苦于合适的歌手太少,底子不具有组建独唱团的条件,意气消沉之下,达灵预备放弃并打道回府。就在这时他遇上了一位名叫Lily的美男,她是一位夜总会歌手,正要加入年度灵歌大赛,达灵晓得自己想要的人找到了,假如能劝服她加入独唱团,那末他便可以完成婶婶的遗言,顺遂地继续下遗产……
  1. Video
  2. ID                                       : 1
  3. Format                                   : AVC
  4. Format/Info                              : Advanced Video Codec
  5. Format profile                           : High@L4
  6. Format settings                          : CABAC / 4 Ref Frames
  7. Format settings, CABAC                   : Yes
  8. Format settings, Reference frames        : 4 frames
  9. Codec ID                                 : V_MPEG4/ISO/AVC
  10. Duration                                 : 2 h 2 min
  11. Bit rate                                 : 13.6 Mb/s
  12. Width                                    : 1 920 pixels
  13. Height                                   : 800 pixels
  14. Display aspect ratio                     : 2.40:1
  15. Frame rate mode                          : Constant
  16. Frame rate                               : 23.976 (24000/1001) FPS
  17. Color space                              : YUV
  18. Chroma subsampling                       : 4:2:0
  19. Bit depth                                : 8 bits
  20. Scan type                                : Progressive
  21. Bits/(Pixel*Frame)                       : 0.368
  22. Stream size                              : 11.6 GiB (95%)
  23. Default                                  : Yes
  24. Forced                                   : No
  25. Color range                              : Limited
  26. Color primaries                          : BT.709
  27. Transfer characteristics                 : BT.709
  28. Matrix coefficients                      : BT.709

  29. Audio
  30. ID                                       : 2
  31. Format                                   : E-AC-3
  32. Format/Info                              : Enhanced AC-3
  33. Commercial name                          : Dolby Digital Plus
  34. Codec ID                                 : A_EAC3
  35. Duration                                 : 2 h 2 min
  36. Bit rate mode                            : Constant
  37. Bit rate                                 : 640 kb/s
  38. Channel(s)                               : 6 channels
  39. Channel layout                           : L R C LFE Ls Rs
  40. Sampling rate                            : 48.0 kHz
  41. Frame rate                               : 31.250 FPS (1536 SPF)
  42. Compression mode                         : Lossy
  43. Stream size                              : 562 MiB (5%)
  44. Language                                 : English
  45. Service kind                             : Complete Main
  46. Default                                  : Yes
  47. Forced                                   : No

  48. Text
  49. ID                                       : 3
  50. Format                                   : UTF-8
  51. Codec ID                                 : S_TEXT/UTF8
  52. Codec ID/Info                            : UTF-8 Plain Text
  53. Duration                                 : 2 h 2 min
  54. Bit rate                                 : 93 b/s
  55. Count of elements                        : 2854
  56. Stream size                              : 84.0 KiB (0%)
  57. Title                                    : English (SDH)
  58. Language                                 : English
  59. Default                                  : No
  60. Forced                                   : No
复制代码

亿万唱诗班 The.Fighting.Temptations.2003.1080p.AMZN.WEBRip.DDP5.1.x264-SiGMA 12.19GB-2.png 亿万唱诗班 The.Fighting.Temptations.2003.1080p.AMZN.WEBRip.DDP5.1.x264-SiGMA 12.19GB-3.png 230718uzt8mn6nqtq8rm6t.png







VIP会员免费任意下载本站所有资源!---点击开通
回复

使用道具 举报

懒得打字嘛,点击右侧快捷回复 【右侧内容,后台自定义】
您需要登录后才可以回帖 登录 | 立即注册

本版积分规则

QQ|Archiver|手机版|小黑屋| 中国高清网 |网站地图

GMT+8, 2019-11-20 09:35 , Processed in 0.281274 second(s), 38 queries .

Powered by HDchina X3.4

Copyright 2017-2019©HDchina.All right reserved

返回顶部 联系我们