查看: 10|回复: 0

[科幻片] 第五名乘客 5th.Passenger.2018.1080p.AMZN.WEBRip.DDP5.1.x264-NTG 2.18GB

[复制链接]

 成长值: 3160

级别:资源管理组

注册时间
2017-10-20
最后登录
2019-11-11
听众
1
收听
0
主题
86761
蓝光币
61811 枚
贡献
11119 点
发表于 2019-11-6 21:38:29 | 显示全部楼层 |阅读模式
第五名乘客 5th.Passenger.2018.1080p.AMZN.WEBRip.DDP5.1.x264-NTG 2.18GB-1.png

译  名 第五名乘客
片  名 5th Passenger
年  代 2017
产  地 美国
类  别 科幻
语  言 英语
上映日期 2017-01(美国)
IMDb评分  3.1/10 from 1380 users
IMDb链接  https://www.imdb.com/title/tt3165632
豆瓣评分 3.4/10 from 361 users
豆瓣链接 https://movie.douban.com/subject/26909571/
片  长 89分钟
导  演 Scotty Baker
编  剧 Scotty Baker
主  演 道格·琼斯 Doug Jones
       玛丽娜·赛提斯 Marina Sirtis
       明迪·罗宾逊 Mindy Robinson
       阿尔明·谢摩尔曼 Armin Shimerman
       蒂姆·罗斯 Tim Russ
       David Lim
       Manu Intiraymi
       Reka Rene
       Hana Hatae
       胡安 Ann Hu
       Cleo Fraser
       Morgan Lariah
       Ryan T. Husk
       里克·E.安德森 Rico E. Anderson
       Peter Sebastian Wrobell


标  签 科幻 | 美国 | 烂片 | 美国电影 | 人性 | 烂透了 | 烂片当中的烂片啊~ | 2017

简  介  

  未来,地球情况变得越来越卑劣,人类纷纷踏上外太空移民的星际之路。一艘巨大的航天飞船遭受空难扑灭,载着船主的逃生舱被另一艘飞船所救援。但是,逃生舱里只要被规定为非百姓的夏娃·米勒中尉(玛丽娜·赛提斯 Marina Sirtis 饰),此时她呆呆傻傻,堕入混沌。船主寿令手下提取她的记忆,从记忆中得知,已经怀孕的米勒中尉在灾难中和富兰克林船主、多默、汤姆森、李等总计五人登上了逃生舱。虽然米勒蒙受其他人的轻视和羞辱,但她还是竭尽尽力要寻觅生还的希望。只不外最初舱里究竟发生了什么事?其他四人究竟去了那里?
  米勒中尉的记忆中藏着可怕的未解之谜……
  1. Video
  2. ID                                       : 1
  3. Format                                   : AVC
  4. Format/Info                              : Advanced Video Codec
  5. Format profile                           : High@L4
  6. Format settings                          : CABAC / 4 Ref Frames
  7. Format settings, CABAC                   : Yes
  8. Format settings, Reference frames        : 4 frames
  9. Codec ID                                 : V_MPEG4/ISO/AVC
  10. Duration                                 : 1 h 29 min
  11. Bit rate                                 : 2 854 kb/s
  12. Width                                    : 1 920 pixels
  13. Height                                   : 800 pixels
  14. Display aspect ratio                     : 2.40:1
  15. Frame rate mode                          : Constant
  16. Frame rate                               : 23.976 (24000/1001) FPS
  17. Color space                              : YUV
  18. Chroma subsampling                       : 4:2:0
  19. Bit depth                                : 8 bits
  20. Scan type                                : Progressive
  21. Bits/(Pixel*Frame)                       : 0.078
  22. Stream size                              : 1.78 GiB (82%)
  23. Default                                  : Yes
  24. Forced                                   : No
  25. Color range                              : Limited
  26. Color primaries                          : BT.709
  27. Transfer characteristics                 : BT.709
  28. Matrix coefficients                      : BT.709

  29. Audio
  30. ID                                       : 2
  31. Format                                   : E-AC-3
  32. Format/Info                              : Enhanced AC-3
  33. Commercial name                          : Dolby Digital Plus
  34. Codec ID                                 : A_EAC3
  35. Duration                                 : 1 h 29 min
  36. Bit rate mode                            : Constant
  37. Bit rate                                 : 640 kb/s
  38. Channel(s)                               : 6 channels
  39. Channel layout                           : L R C LFE Ls Rs
  40. Sampling rate                            : 48.0 kHz
  41. Frame rate                               : 31.250 FPS (1536 SPF)
  42. Compression mode                         : Lossy
  43. Stream size                              : 409 MiB (18%)
  44. Language                                 : English
  45. Service kind                             : Complete Main
  46. Default                                  : Yes
  47. Forced                                   : No

  48. Text
  49. ID                                       : 3
  50. Format                                   : UTF-8
  51. Codec ID                                 : S_TEXT/UTF8
  52. Codec ID/Info                            : UTF-8 Plain Text
  53. Duration                                 : 1 h 24 min
  54. Bit rate                                 : 47 b/s
  55. Count of elements                        : 1184
  56. Stream size                              : 29.3 KiB (0%)
  57. Title                                    : SDH
  58. Language                                 : English
  59. Default                                  : No
  60. Forced                                   : No
复制代码

第五名乘客 5th.Passenger.2018.1080p.AMZN.WEBRip.DDP5.1.x264-NTG 2.18GB-2.png 第五名乘客 5th.Passenger.2018.1080p.AMZN.WEBRip.DDP5.1.x264-NTG 2.18GB-3.png 第五名乘客 5th.Passenger.2018.1080p.AMZN.WEBRip.DDP5.1.x264-NTG 2.18GB-4.png







VIP会员免费任意下载本站所有资源!---点击开通
回复

使用道具 举报

懒得打字嘛,点击右侧快捷回复 【右侧内容,后台自定义】
您需要登录后才可以回帖 登录 | 立即注册

本版积分规则

QQ|Archiver|手机版|小黑屋| 中国高清网 |网站地图 

GMT+8, 2019-11-15 07:27 , Processed in 0.215786 second(s), 37 queries .

Powered by HDchina X3.4

Copyright 2017-2019©HDchina.All right reserved

返回顶部 联系我们