查看: 11|回复: 0

[剧情片] 美国小姐/魅力 Beautiful.2000.1080p.AMZN.WEBRip.DDP5.1.x264-ABM 10.51GB

[复制链接]

 成长值: 3230

级别:资源管理组

注册时间
2017-10-20
最后登录
2019-11-21
听众
1
收听
0
主题
87390
蓝光币
63616 枚
贡献
11749 点
发表于 2019-11-6 21:36:12 | 显示全部楼层 |阅读模式

213218n6yllviwuggkfvle.png

译  名 美国蜜斯 / 魅力
片  名 Beautiful
年  代 2000
产  地 美国
类  别 剧情 / 笑剧
语  言 英语
上映日期 2001-05-24
IMDb评分  5.6/10 from 3533 users
IMDb链接  https://www.imdb.com/title/tt0210567
豆瓣评分 0/10 from 0 users
豆瓣链接 https://movie.douban.com/subject/1295956/
片  长 112 分钟
导  演 萨莉 菲尔德 (Sally Field)
编  剧 乔恩 伯恩斯坦 (Jon Bernstein)
主  演 明妮·德里弗 Minnie Driver
       乔伊·劳伦·亚当斯 Joey Lauren Adams
       海莉·凯特·爱森伯格 Hallie Kate Eisenberg
       凯瑟琳·罗伯特森 Kathleen Robertson
       凯瑟琳·特纳 Kathleen Turner


标  签 美国电影 | 明妮·德里弗 | 女性导演 | 笑剧 | 美国 | 这一年的影单有着落了 | 典范 | 我的电影4

简  介  

  暂无相关剧情先容
  1. Video
  2. ID : 1
  3. Format : AVC
  4. Format/Info : Advanced Video Codec
  5. Format profile : High@L4
  6. Format settings : CABAC / 4 Ref Frames
  7. Format settings, CABAC : Yes
  8. Format settings, Reference frames : 4 frames
  9. Codec ID : V_MPEG4/ISO/AVC
  10. Duration : 1 h 52 min
  11. Bit rate mode : Variable
  12. Bit rate : 12.8 Mb/s
  13. Maximum bit rate : 15.0 Mb/s
  14. Width : 1 920 pixels
  15. Height : 1 080 pixels
  16. Display aspect ratio : 16:9
  17. Frame rate mode : Constant
  18. Frame rate : 23.976 (24000/1001) FPS
  19. Color space : YUV
  20. Chroma subsampling : 4:2:0
  21. Bit depth : 8 bits
  22. Scan type : Progressive
  23. Bits/(Pixel*Frame) : 0.257
  24. Stream size : 10.0 GiB (95%)
  25. Default : Yes
  26. Forced : No
  27. Color range : Limited
  28. Color primaries : BT.709
  29. Transfer characteristics : BT.709
  30. Matrix coefficients : BT.709

  31. Audio
  32. ID : 2
  33. Format : E-AC-3
  34. Format/Info : Enhanced AC-3
  35. Commercial name : Dolby Digital Plus
  36. Codec ID : A_EAC3
  37. Duration : 1 h 52 min
  38. Bit rate mode : Constant
  39. Bit rate : 640 kb/s
  40. Channel(s) : 6 channels
  41. Channel layout : L R C LFE Ls Rs
  42. Sampling rate : 48.0 kHz
  43. Frame rate : 31.250 FPS (1536 SPF)
  44. Compression mode : Lossy
  45. Stream size : 513 MiB (5%)
  46. Language : English
  47. Service kind : Complete Main
  48. Default : Yes
  49. Forced : No

  50. Text
  51. ID : 3
  52. Format : UTF-8
  53. Codec ID : S_TEXT/UTF8
  54. Codec ID/Info : UTF-8 Plain Text
  55. Duration : 1 h 51 min
  56. Bit rate : 70 b/s
  57. Count of elements : 1692
  58. Stream size : 57.2 KiB (0%)
  59. Language : English
  60. Default : No
  61. Forced : No
复制代码

美国蜜斯/魅力 Beautiful.2000.1080p.AMZN.WEBRip.DDP5.1.x264-ABM 10.51GB-2.png 美国蜜斯/魅力 Beautiful.2000.1080p.AMZN.WEBRip.DDP5.1.x264-ABM 10.51GB-3.png 美国蜜斯/魅力 Beautiful.2000.1080p.AMZN.WEBRip.DDP5.1.x264-ABM 10.51GB-4.png 美国蜜斯/魅力 Beautiful.2000.1080p.AMZN.WEBRip.DDP5.1.x264-ABM 10.51GB-5.png 24675434364316122393_medium.png 美国蜜斯/魅力 Beautiful.2000.1080p.AMZN.WEBRip.DDP5.1.x264-ABM 10.51GB-7.png







VIP会员免费任意下载本站所有资源!---点击开通
回复

使用道具 举报

懒得打字嘛,点击右侧快捷回复 【右侧内容,后台自定义】
您需要登录后才可以回帖 登录 | 立即注册

本版积分规则

QQ|Archiver|手机版|小黑屋| 中国高清网 |网站地图

GMT+8, 2019-11-22 05:31 , Processed in 0.216186 second(s), 37 queries .

Powered by HDchina X3.4

Copyright 2017-2019©HDchina.All right reserved

返回顶部 联系我们