查看: 9|回复: 0

[恐怖片] 午夜大杀手 Alone.in.the.Dark.1982.1080p.AMZN.WEBRip.DDP2.0.x264-QOQ 8.41GB

[复制链接]

 成长值: 3210

级别:资源管理组

注册时间
2017-10-20
最后登录
2019-11-20
听众
1
收听
0
主题
87221
蓝光币
63012 枚
贡献
11580 点
发表于 2019-11-6 21:25:23 | 显示全部楼层 |阅读模式
半夜大杀手 Alone.in.the.Dark.1982.1080p.AMZN.WEBRip.DDP2.0.x264-QOQ 8.41GB-1.png

译  名 半夜大杀手
片  名 Alone in the Dark
年  代 1982
产  地 美国
类  别 可骇
语  言 英语
上映日期 1982-11-12(美国)
IMDb评分  6.1/10 from 4095 users
IMDb链接  https://www.imdb.com/title/tt0083542
豆瓣评分 0/10 from 0 users
豆瓣链接 https://movie.douban.com/subject/1295464/
片  长 92 分钟
导  演 Jack Sholder
编  剧 Jack Sholder / Michael Harrpster / 罗伯特·沙耶 Robert Shaye
主  演 杰克·帕兰斯 Jack Palance
       唐纳德·普利森斯 Donald Pleasence
       马丁·兰道 Martin Landau


标  签 可骇 | 美国 | 惊悚 | 美国电影 | 补遗 | 罗伯特·德尼罗 | 悬疑 | 电影

简  介  

  A quartet of murderous psychopaths break out of a mental hospital during a power blackout and lay siege to their doctor’s house.
  1. Video
  2. ID                                       : 1
  3. Format                                   : AVC
  4. Format/Info                              : Advanced Video Codec
  5. Format profile                           : High@L4
  6. Format settings                          : CABAC / 4 Ref Frames
  7. Format settings, CABAC                   : Yes
  8. Format settings, Reference frames        : 4 frames
  9. Codec ID                                 : V_MPEG4/ISO/AVC
  10. Duration                                 : 1 h 33 min
  11. Bit rate mode                            : Variable
  12. Bit rate                                 : 12.6 Mb/s
  13. Maximum bit rate                         : 15.0 Mb/s
  14. Width                                    : 1 920 pixels
  15. Height                                   : 1 080 pixels
  16. Display aspect ratio                     : 16:9
  17. Frame rate mode                          : Constant
  18. Frame rate                               : 23.976 (24000/1001) FPS
  19. Color space                              : YUV
  20. Chroma subsampling                       : 4:2:0
  21. Bit depth                                : 8 bits
  22. Scan type                                : Progressive
  23. Bits/(Pixel*Frame)                       : 0.254
  24. Stream size                              : 8.26 GiB (98%)
  25. Default                                  : Yes
  26. Forced                                   : No
  27. Color range                              : Limited
  28. Color primaries                          : BT.709
  29. Transfer characteristics                 : BT.709
  30. Matrix coefficients                      : BT.709

  31. Audio
  32. ID                                       : 2
  33. Format                                   : E-AC-3
  34. Format/Info                              : Enhanced AC-3
  35. Commercial name                          : Dolby Digital Plus
  36. Codec ID                                 : A_EAC3
  37. Duration                                 : 1 h 33 min
  38. Bit rate mode                            : Constant
  39. Bit rate                                 : 224 kb/s
  40. Channel(s)                               : 2 channels
  41. Channel layout                           : L R
  42. Sampling rate                            : 48.0 kHz
  43. Frame rate                               : 31.250 FPS (1536 SPF)
  44. Compression mode                         : Lossy
  45. Stream size                              : 150 MiB (2%)
  46. Language                                 : English
  47. Service kind                             : Complete Main
  48. Default                                  : Yes
  49. Forced                                   : No

  50. Text
  51. ID                                       : 3
  52. Format                                   : UTF-8
  53. Codec ID                                 : S_TEXT/UTF8
  54. Codec ID/Info                            : UTF-8 Plain Text
  55. Duration                                 : 1 h 30 min
  56. Bit rate                                 : 54 b/s
  57. Count of elements                        : 1223
  58. Stream size                              : 36.1 KiB (0%)
  59. Language                                 : English
  60. Default                                  : No
  61. Forced                                   : No
复制代码

半夜大杀手 Alone.in.the.Dark.1982.1080p.AMZN.WEBRip.DDP2.0.x264-QOQ 8.41GB-2.png 半夜大杀手 Alone.in.the.Dark.1982.1080p.AMZN.WEBRip.DDP2.0.x264-QOQ 8.41GB-3.png 半夜大杀手 Alone.in.the.Dark.1982.1080p.AMZN.WEBRip.DDP2.0.x264-QOQ 8.41GB-4.png







VIP会员免费任意下载本站所有资源!---点击开通
回复

使用道具 举报

懒得打字嘛,点击右侧快捷回复 【右侧内容,后台自定义】
您需要登录后才可以回帖 登录 | 立即注册

本版积分规则

QQ|Archiver|手机版|小黑屋| 中国高清网 |网站地图

GMT+8, 2019-11-20 09:32 , Processed in 0.231452 second(s), 37 queries .

Powered by HDchina X3.4

Copyright 2017-2019©HDchina.All right reserved

返回顶部 联系我们