查看: 12|回复: 0

[动作片] 天才除草人2/异度空间 2 Lawnmower.Man.2.Beyond.Cyberspace.1996.1080p.AMZN.WEBRip.DDP2.0.x264-NTb 6.54GB

[复制链接]

 成长值: 3210

级别:资源管理组

注册时间
2017-10-20
最后登录
2019-11-20
听众
1
收听
0
主题
87221
蓝光币
63034 枚
贡献
11580 点
发表于 2019-11-6 21:23:35 | 显示全部楼层 |阅读模式
天赋除草人2/异度空间 2 Lawnmower.Man.2.Beyond.Cyberspace.1996.1080p.AMZN.WEBRip.DDP2.0.x264-NTb 6.54GB-1.png

译  名 天赋除草人2 / 异度空间 2
片  名 Lawnmower Man 2: Beyond Cyberspace
年  代 1996
产  地 美国
类  别 行动 / 科幻 / 惊悚
语  言 英语
上映日期 1996-01-12
IMDb评分  2.5/10 from 8721 users
IMDb链接  https://www.imdb.com/title/tt0116839
豆瓣评分 5.2/10 from 82 users
豆瓣链接 https://movie.douban.com/subject/1423001/
片  长 92 分钟
导  演 Farhad Mann
编  剧 Farhad Mann / 迈克尔 迈纳 (Michael Miner)
主  演 Patrick Bergin
       Matt Frewer
       Austin O'Brien
       Ely Pouget


标  签 科幻 | 美国 | 美国电影 | 虚拟现实技术 | 魔科幻/惊悚 | 收集 | 电影 | 1996

简  介  

  消防员从一家被大火烧毁的“虚拟空间工场”的废墟里救出了身受重伤的乔布,此时的他处于岌岌可危的状态之下,而且落空了曩昔的一牢记忆,由于过度烧伤,医生还对他停止了整容手术,醒来后的乔布已经完全落空了畴前的面孔。但沃克率领的正处置虚拟空间研讨的“虚拟空间研讨所”却已经黑暗盯上了乔布,他们对乔布停止了虚拟现实尝试,以此来帮助他重建了思惟,终极借助他的气力来实现不成告人的目标。
  时候来到未来的洛杉矶。彼得和特拉维斯、哈维、肖恩等几个小伙伴住在城市地下的地道里,过着流浪的生活,几小我都酷好收集虚拟游戏,在一次进入虚拟空间时,彼得居然碰到了乔布,两人相见甚欢,乔书记诉彼得自己被困在了虚拟空间,而收集虚拟空间行将扑灭,他也会随之消失,只要一个叫本杰明?特雷斯的人可以救他,哀告彼得帮他找到特雷斯并将他带到虚拟空间里。彼得一口答应,但找到特雷斯后却发现那是个实足的怪人,他隐居在人迹罕至的沙漠,对陌生的彼得并不友爱。直到彼得提到奇容芯片的事,他才答应前往
  1. Video
  2. ID                                       : 1
  3. Format                                   : AVC
  4. Format/Info                              : Advanced Video Codec
  5. Format profile                           : High@L4
  6. Format settings                          : CABAC / 4 Ref Frames
  7. Format settings, CABAC                   : Yes
  8. Format settings, Reference frames        : 4 frames
  9. Format settings, GOP                     : M=4, N=48
  10. Codec ID                                 : V_MPEG4/ISO/AVC
  11. Duration                                 : 1 h 32 min
  12. Bit rate mode                            : Constant
  13. Bit rate                                 : 10 000 kb/s
  14. Width                                    : 1 920 pixels
  15. Height                                   : 1 080 pixels
  16. Display aspect ratio                     : 16:9
  17. Frame rate mode                          : Constant
  18. Frame rate                               : 23.976 (24000/1001) FPS
  19. Color space                              : YUV
  20. Chroma subsampling                       : 4:2:0
  21. Bit depth                                : 8 bits
  22. Scan type                                : Progressive
  23. Bits/(Pixel*Frame)                       : 0.201
  24. Stream size                              : 6.39 GiB (98%)
  25. Language                                 : English
  26. Default                                  : Yes
  27. Forced                                   : No
  28. Color range                              : Limited
  29. Color primaries                          : BT.709
  30. Transfer characteristics                 : BT.709
  31. Matrix coefficients                      : BT.709

  32. Audio
  33. ID                                       : 2
  34. Format                                   : E-AC-3
  35. Format/Info                              : Enhanced AC-3
  36. Commercial name                          : Dolby Digital Plus
  37. Codec ID                                 : A_EAC3
  38. Duration                                 : 1 h 32 min
  39. Bit rate mode                            : Constant
  40. Bit rate                                 : 224 kb/s
  41. Channel(s)                               : 2 channels
  42. Channel layout                           : L R
  43. Sampling rate                            : 48.0 kHz
  44. Frame rate                               : 31.250 FPS (1536 SPF)
  45. Compression mode                         : Lossy
  46. Stream size                              : 149 MiB (2%)
  47. Language                                 : English
  48. Service kind                             : Complete Main
  49. Default                                  : Yes
  50. Forced                                   : No

  51. Text #1
  52. ID                                       : 3
  53. Format                                   : UTF-8
  54. Codec ID                                 : S_TEXT/UTF8
  55. Codec ID/Info                            : UTF-8 Plain Text
  56. Duration                                 : 1 h 28 min
  57. Bit rate                                 : 46 b/s
  58. Count of elements                        : 1324
  59. Stream size                              : 30.2 KiB (0%)
  60. Language                                 : English
  61. Default                                  : No
  62. Forced                                   : No

  63. Text #2
  64. ID                                       : 4
  65. Format                                   : UTF-8
  66. Codec ID                                 : S_TEXT/UTF8
  67. Codec ID/Info                            : UTF-8 Plain Text
  68. Duration                                 : 1 h 28 min
  69. Bit rate                                 : 48 b/s
  70. Count of elements                        : 1371
  71. Stream size                              : 31.2 KiB (0%)
  72. Title                                    : SDH
  73. Language                                 : English
  74. Default                                  : No
  75. Forced                                   : No
复制代码

天赋除草人2/异度空间 2 Lawnmower.Man.2.Beyond.Cyberspace.1996.1080p.AMZN.WEBRip.DDP2.0.x264-NTb 6.54GB-2.png 天赋除草人2/异度空间 2 Lawnmower.Man.2.Beyond.Cyberspace.1996.1080p.AMZN.WEBRip.DDP2.0.x264-NTb 6.54GB-3.png 天赋除草人2/异度空间 2 Lawnmower.Man.2.Beyond.Cyberspace.1996.1080p.AMZN.WEBRip.DDP2.0.x264-NTb 6.54GB-4.png







VIP会员免费任意下载本站所有资源!---点击开通
回复

使用道具 举报

懒得打字嘛,点击右侧快捷回复 【右侧内容,后台自定义】
您需要登录后才可以回帖 登录 | 立即注册

本版积分规则

QQ|Archiver|手机版|小黑屋| 中国高清网 |网站地图

GMT+8, 2019-11-20 10:34 , Processed in 0.273567 second(s), 37 queries .

Powered by HDchina X3.4

Copyright 2017-2019©HDchina.All right reserved

返回顶部 联系我们