查看: 39|回复: 2

[历史片] 罗伯特·布鲁斯 Robert.the.Bruce.2019.1080p.BluRay.x264-EiDER 8.74GB

[复制链接]

 成长值: 3210

级别:资源管理组

注册时间
2017-10-20
最后登录
2019-11-20
听众
1
收听
0
主题
87221
蓝光币
63016 枚
贡献
11580 点
发表于 2019-11-6 21:21:46 | 显示全部楼层 |阅读模式
罗伯特·布鲁斯 Robert.the.Bruce.2019.1080p.BluRay.x264-EiDER 8.74GB-1.png

译  名 罗伯特·布鲁斯
片  名 Robert the Bruce
年  代 2019
产  地 美国
类  别 历史
语  言 英语
上映日期 2019-06-28(英国)
IMDb评分  5.4/10 from 470 users
IMDb链接  https://www.imdb.com/title/tt8000908
豆瓣评分 0/10 from 0 users
豆瓣链接 https://movie.douban.com/subject/30199661/
片  长 124分钟
导  演 理查德·格雷 Richard Gray
主  演 艾玛·肯尼 Emma Kenney
       扎克·麦克格温 Zach McGowan
       杰瑞德·哈里斯 Jared Harris
       派屈克·福吉特 Patrick Fugit
       凯文·麦克纳利 Kevin McNally
       安娜·哈彻森 Anna Hutchison
       梅罗拉·沃特斯 Melora Walters
       特丽莎·贝特曼 Talitha Bateman
       安古斯·麦克菲登 Angus Macfadyen
       Mhairi Calvey
       加布里埃尔·贝特曼 Gabriel Bateman
       迪尔梅德·默塔 Diarmaid Murtagh
       沙恩·科费 Shane Coffey
       Anthony J. Sharpe
       Gianni Capaldi


标  签 战争 | 历史

简  介  

  The story of nobleman-turned-outlaw hero who was crowned king of Scots in the 14th century.
  1. Video
  2. ID                                       : 1
  3. Format                                   : AVC
  4. Format/Info                              : Advanced Video Codec
  5. Format profile                           : High@L4
  6. Format settings                          : CABAC / 5 Ref Frames
  7. Format settings, CABAC                   : Yes
  8. Format settings, Reference frames        : 5 frames
  9. Codec ID                                 : V_MPEG4/ISO/AVC
  10. Duration                                 : 2 h 3 min
  11. Bit rate                                 : 8 617 kb/s
  12. Width                                    : 1 920 pixels
  13. Height                                   : 800 pixels
  14. Display aspect ratio                     : 2.40:1
  15. Frame rate mode                          : Constant
  16. Frame rate                               : 24.000 FPS
  17. Color space                              : YUV
  18. Chroma subsampling                       : 4:2:0
  19. Bit depth                                : 8 bits
  20. Scan type                                : Progressive
  21. Bits/(Pixel*Frame)                       : 0.234
  22. Stream size                              : 7.27 GiB (83%)
  23. Writing library                          : x264 core 158 r2984 3759fcb
  24. Encoding settings                        : cabac=1 / ref=5 / deblock=1:-3:-3 / analyse=0x3:0x113 / me=umh / subme=8 / psy=1 / psy_rd=1.00:0.00 / mixed_ref=1 / me_range=32 / chroma_me=1 / trellis=2 / 8x8dct=1 / cqm=0 / deadzone=21,11 / fast_pskip=1 / chroma_qp_offset=-2 / threads=18 / lookahead_threads=3 / sliced_threads=0 / nr=0 / decimate=1 / interlaced=0 / bluray_compat=0 / constrained_intra=0 / bframes=3 / b_pyramid=2 / b_adapt=2 / b_bias=0 / direct=3 / weightb=1 / open_gop=0 / weightp=2 / keyint=240 / keyint_min=24 / scenecut=40 / intra_refresh=0 / rc_lookahead=50 / rc=2pass / mbtree=1 / bitrate=8617 / ratetol=1.0 / qcomp=0.60 / qpmin=0 / qpmax=69 / qpstep=4 / cplxblur=20.0 / qblur=0.5 / ip_ratio=1.40 / aq=3:0.80
  25. Default                                  : Yes
  26. Forced                                   : No
  27. Statistics Tags Issue                    : no_variable_data 1970-01-01 00:00:00 / no_variable_data 2010-02-22 21:41:29
  28. FromStats_BitRate                        : 8614209
  29. FromStats_Duration                       : 02:03:36.917000000
  30. FromStats_FrameCount                     : 178006
  31. FromStats_StreamSize                     : 7986359495

  32. Audio
  33. ID                                       : 2
  34. Format                                   : DTS
  35. Format/Info                              : Digital Theater Systems
  36. Codec ID                                 : A_DTS
  37. Duration                                 : 2 h 3 min
  38. Bit rate mode                            : Constant
  39. Bit rate                                 : 1 509 kb/s
  40. Channel(s)                               : 6 channels
  41. Channel layout                           : C L R Ls Rs LFE
  42. Sampling rate                            : 48.0 kHz
  43. Frame rate                               : 93.750 FPS (512 SPF)
  44. Bit depth                                : 24 bits
  45. Compression mode                         : Lossy
  46. Stream size                              : 1.30 GiB (15%)
  47. Language                                 : English
  48. Default                                  : Yes
  49. Forced                                   : No
  50. Statistics Tags Issue                    : no_variable_data 1970-01-01 00:00:00 / no_variable_data 2010-02-22 21:41:29
  51. FromStats_BitRate                        : 1508999
  52. FromStats_Duration                       : 02:03:36.918000000
  53. FromStats_FrameCount                     : 695336
  54. FromStats_StreamSize                     : 1399016032

  55. Menu
  56. 00:00:00.000                             : en:Chapter 01
  57. 00:18:55.792                             : en:Chapter 02
  58. 00:31:47.833                             : en:Chapter 03
  59. 00:52:01.167                             : en:Chapter 04
  60. 01:13:24.417                             : en:Chapter 05
  61. 01:35:34.042                             : en:Chapter 06
复制代码

罗伯特·布鲁斯 Robert.the.Bruce.2019.1080p.BluRay.x264-EiDER 8.74GB-2.png







VIP会员免费任意下载本站所有资源!---点击开通
回复

使用道具 举报

级别:专业龙套 Lv.4

注册时间
2019-6-26
最后登录
2019-11-19
听众
8
收听
0
主题
0
蓝光币
466 枚
贡献
0 点
发表于 2019-11-6 21:25:46 | 显示全部楼层

这东西我收了!谢谢楼主!中国高清电影网真好!
VIP会员免费任意下载本站所有资源!---点击开通
回复

使用道具 举报

级别:普通观众 Lv.2

注册时间
2019-10-27
最后登录
2019-11-19
听众
0
收听
0
主题
0
蓝光币
36 枚
贡献
0 点
发表于 2019-11-6 22:26:36 | 显示全部楼层

楼主太厉害了!楼主,电影应该很好看我觉得中国高清电影网真是个好地方!
VIP会员免费任意下载本站所有资源!---点击开通
回复

使用道具 举报

懒得打字嘛,点击右侧快捷回复 【右侧内容,后台自定义】
您需要登录后才可以回帖 登录 | 立即注册

本版积分规则

QQ|Archiver|手机版|小黑屋| 中国高清网 |网站地图

GMT+8, 2019-11-20 09:42 , Processed in 0.244830 second(s), 37 queries .

Powered by HDchina X3.4

Copyright 2017-2019©HDchina.All right reserved

返回顶部 联系我们