查看: 40|回复: 1

[剧情片] 光盲青春/摇滚青春颂 Blinded.by.the.Light.2019.1080p.BluRay.x264-AAA 7.64GB

[复制链接]

 成长值: 3160

级别:资源管理组

注册时间
2017-10-20
最后登录
2019-11-11
听众
1
收听
0
主题
86761
蓝光币
61811 枚
贡献
11119 点
发表于 2019-11-6 15:38:32 | 显示全部楼层 |阅读模式
光盲青春/摇滚青春颂 Blinded.by.the.Light.2019.1080p.BluRay.x264-AAA 7.64GB-1.png

译  名 光盲青春 / 摇滚青春颂(港) / 夺目之光(台)
片  名 Blinded by the Light
年  代 2019
产  地 英国
类  别 剧情 / 笑剧 / 歌舞 / 列传
语  言 英语
上映日期 2019-01-27(圣丹斯电影节) / 2019-08-09(英国)
IMDb评分  7.0/10 from 4935 users
IMDb链接  http://www.imdb.com/title/tt8266310
豆瓣评分 7.0/10 from 136 users
豆瓣链接 https://movie.douban.com/subject/30200414/
片  长 114分钟(圣丹斯电影节)
导  演 顾伦德·查达哈 Gurinder Chadha
编  剧 顾伦德·查达哈 Gurinder Chadha / 保罗·梅达·贝哲斯 Paul Mayeda Berges / 萨弗拉齐·曼苏 Sarfraz Manzoor
主  演 海莉·阿特维尔 Hayley Atwell
       维韦克·卡拉 Viveik Kalra
       莎莉·菲利普斯 Sally Phillips
       艾伦·菲格拉 Aaron Phagura
       迪恩·查尔斯·查普曼 Dean-Charles Chapman
       内尔·威廉姆斯 Nell Williams
       罗伯·布莱顿 Rob Brydon
       文森特·阿德里安 Vincent Andriano
       保罗·布莱克维尔 Paul Blackwell
       约诺·戴维斯 Jonno Davies
       奥利维亚·波莉 Olivia Poulet
       乔·惠特利 Jo Wheatley
       贾格·帕特尔 Jag Patel
       史蒂芬·萨姆森 Stephen Samson
       阿图尔·夏尔马 Atul Sharma
       阿什克·阿赫塔尔 Asheq Akhtar


标  签 英国 | 青春 | 2019 | 音乐 | 剧情 | 80年月怀旧 | 美国 | 家庭

简  介  

  报告的是1987年在英格兰一个小城镇里一个十几岁的移民男孩经过男歌手布鲁斯·斯普林斯汀的音乐找到理想、信心和自在的故事。
  1. Video
  2. ID                                       : 1
  3. Format                                   : AVC
  4. Format/Info                              : Advanced Video Codec
  5. Format profile                           : High@L4
  6. Format settings                          : CABAC / 5 Ref Frames
  7. Format settings, CABAC                   : Yes
  8. Format settings, Reference frames        : 5 frames
  9. Codec ID                                 : V_MPEG4/ISO/AVC
  10. Duration                                 : 1 h 57 min
  11. Bit rate                                 : 8 653 kb/s
  12. Width                                    : 1 920 pixels
  13. Height                                   : 808 pixels
  14. Display aspect ratio                     : 2.40:1
  15. Frame rate mode                          : Constant
  16. Frame rate                               : 23.976 (24000/1001) FPS
  17. Color space                              : YUV
  18. Chroma subsampling                       : 4:2:0
  19. Bit depth                                : 8 bits
  20. Scan type                                : Progressive
  21. Bits/(Pixel*Frame)                       : 0.233
  22. Stream size                              : 7.12 GiB (93%)
  23. Title                                    : Blinded.by.the.Light.2019.1080p.BluRay.x264-AAA
  24. Writing library                          : x264 core 157 r2969 d4099dd
  25. Encoding settings                        : cabac=1 / ref=5 / deblock=1:0:0 / analyse=0x3:0x113 / me=umh / subme=8 / psy=1 / psy_rd=1.00:0.00 / mixed_ref=1 / me_range=16 / chroma_me=1 / trellis=2 / 8x8dct=1 / cqm=0 / deadzone=21,11 / fast_pskip=1 / chroma_qp_offset=-2 / threads=16 / lookahead_threads=2 / sliced_threads=0 / nr=0 / decimate=1 / interlaced=0 / bluray_compat=0 / constrained_intra=0 / bframes=3 / b_pyramid=2 / b_adapt=2 / b_bias=0 / direct=3 / weightb=1 / open_gop=0 / weightp=2 / keyint=240 / keyint_min=23 / scenecut=40 / intra_refresh=0 / rc_lookahead=50 / rc=2pass / mbtree=1 / bitrate=8653 / ratetol=1.0 / qcomp=0.60 / qpmin=0 / qpmax=69 / qpstep=4 / cplxblur=20.0 / qblur=0.5 / ip_ratio=1.40 / aq=1:1.00
  26. Default                                  : Yes
  27. Forced                                   : No

  28. Audio
  29. ID                                       : 2
  30. Format                                   : AC-3
  31. Format/Info                              : Audio Coding 3
  32. Commercial name                          : Dolby Digital
  33. Codec ID                                 : A_AC3
  34. Duration                                 : 1 h 57 min
  35. Bit rate mode                            : Constant
  36. Bit rate                                 : 640 kb/s
  37. Channel(s)                               : 6 channels
  38. Channel layout                           : L R C LFE Ls Rs
  39. Sampling rate                            : 48.0 kHz
  40. Frame rate                               : 31.250 FPS (1536 SPF)
  41. Bit depth                                : 16 bits
  42. Compression mode                         : Lossy
  43. Stream size                              : 539 MiB (7%)
  44. Title                                    : English Dolby Digital (AC3)
  45. Language                                 : English
  46. Service kind                             : Complete Main
  47. Default                                  : Yes
  48. Forced                                   : No

  49. Text
  50. ID                                       : 3
  51. Format                                   : UTF-8
  52. Codec ID                                 : S_TEXT/UTF8
  53. Codec ID/Info                            : UTF-8 Plain Text
  54. Duration                                 : 1 h 50 min
  55. Bit rate                                 : 61 b/s
  56. Count of elements                        : 1635
  57. Stream size                              : 49.8 KiB (0%)
  58. Title                                    : English SDH
  59. Language                                 : English
  60. Default                                  : No
  61. Forced                                   : No

  62. Menu
  63. 00:00:00.000                             : :Chapter 01
  64. 00:11:10.211                             : :Chapter 02
  65. 00:20:03.661                             : :Chapter 03
  66. 00:30:13.270                             : :Chapter 04
  67. 00:39:49.596                             : :Chapter 05
  68. 00:48:52.054                             : :Chapter 06
  69. 00:58:27.212                             : :Chapter 07
  70. 01:08:39.490                             : :Chapter 08
  71. 01:19:01.820                             : :Chapter 09
  72. 01:28:16.791                             : :Chapter 10
  73. 01:40:07.043                             : :Chapter 11
  74. 01:51:37.399                             : :Chapter 12
复制代码

光盲青春/摇滚青春颂 Blinded.by.the.Light.2019.1080p.BluRay.x264-AAA 7.64GB-2.png







VIP会员免费任意下载本站所有资源!---点击开通
回复

使用道具 举报

级别:普通观众 Lv.2

注册时间
2019-10-27
最后登录
2019-11-14
听众
0
收听
0
主题
0
蓝光币
21 枚
贡献
0 点
发表于 2019-11-6 22:25:46 | 显示全部楼层
楼主发贴辛苦了,谢谢楼主分享!我觉得中国高清电影网是注册对了!
VIP会员免费任意下载本站所有资源!---点击开通
回复

使用道具 举报

懒得打字嘛,点击右侧快捷回复 【右侧内容,后台自定义】
您需要登录后才可以回帖 登录 | 立即注册

本版积分规则

QQ|Archiver|手机版|小黑屋| 中国高清网 |网站地图 

GMT+8, 2019-11-15 07:37 , Processed in 0.234511 second(s), 37 queries .

Powered by HDchina X3.4

Copyright 2017-2019©HDchina.All right reserved

返回顶部 联系我们