查看: 64|回复: 0

[动作片] 烈火战车2:极速传说 The.Legend.of.Speed.1999.CHINESE.1080p.BluRay.x264.DTS-FGT 9.92GB

[复制链接]

 成长值: 3160

级别:资源管理组

注册时间
2017-10-20
最后登录
2019-11-11
听众
1
收听
0
主题
86761
蓝光币
61825 枚
贡献
11119 点
发表于 2019-11-6 15:25:56 | 显示全部楼层 |阅读模式
猛火战车2:极速传闻 The.Legend.of.Speed.1999.CHINESE.1080p.BluRay.x264.DTS-FGT 9.92GB-1.png

译  名 猛火战车2:极速传闻 / The Legend of Speed
片  名 猛火戰車2極速傳說
年  代 1999
产  地 中国香港
类  别 行动 / 惊悚
语  言 粤语
上映日期 1999-12-18
IMDb评分  6.1/10 from 461 users
IMDb链接  https://www.imdb.com/title/tt0234105
豆瓣评分 6.5/10 from 5592 users
豆瓣链接 https://movie.douban.com/subject/1300317/
片  长 Japan: 109 分钟
导  演 刘伟强
编  剧 文隽 / 陈十三
主  演 郑伊健
       张柏芝
       林熙蕾
       谭耀文
       任达华
       林晓峰
       陈豪
       车婉婉
       姜大卫
       柯受良


标  签 香港 | 香港电影 | 郑伊健 | 张柏芝 | 行动 | 刘伟强 | 林熙蕾 | 任达华

简  介  

  素性傲岸的Sky(郑伊健 饰)仗着母亲与继父的不俗职位处处闯祸。一向以来他都酷爱赛车。在他看来就只要自己的女友阿希(林熙蕾 饰)和两位好友趴地熊(谭耀文 饰)、谢贤(林晓峰 饰)。Sky与丧偈(陈豪 饰)树敌,丧偈的哥哥(任达华 饰)是一代车神,来应战Sky,角逐中不胜落后的Sky失手翻车,女友就地死去。Sky强忍落空爱人的痛楚,逃到外地躲过仇人的追杀,到泰国寻觅自己的亲生父亲(柯受良 饰),昔时父亲车神的风采不再,令他相当失望。幸得一向暗恋他的凉子(张栢芝 饰)在旁激励照顾,但趴地熊的死去,完全让他改变了。
  1. Video
  2. ID                                       : 1
  3. Format                                   : AVC
  4. Format/Info                              : Advanced Video Codec
  5. Format profile                           : High@L4
  6. Format settings                          : CABAC / 4 Ref Frames
  7. Format settings, CABAC                   : Yes
  8. Format settings, Reference frames        : 4 frames
  9. Codec ID                                 : V_MPEG4/ISO/AVC
  10. Duration                                 : 1 h 49 min
  11. Bit rate                                 : 11.5 Mb/s
  12. Width                                    : 1 920 pixels
  13. Height                                   : 1 080 pixels
  14. Display aspect ratio                     : 16:9
  15. Frame rate mode                          : Constant
  16. Frame rate                               : 24.000 FPS
  17. Color space                              : YUV
  18. Chroma subsampling                       : 4:2:0
  19. Bit depth                                : 8 bits
  20. Scan type                                : Progressive
  21. Bits/(Pixel*Frame)                       : 0.231
  22. Stream size                              : 8.77 GiB (88%)
  23. Title                                    : The.Legend.of.Speed.1999.CHINESE.1080p.BluRay.x264.DTS-FGT
  24. Writing library                          : x264 core 148 r2795M aaa9aa8
  25. Encoding settings                        : cabac=1 / ref=4 / deblock=1:-2:-2 / analyse=0x3:0x113 / me=umh / subme=9 / psy=1 / psy_rd=1.00:0.15 / mixed_ref=1 / me_range=16 / chroma_me=1 / trellis=2 / 8x8dct=1 / cqm=0 / deadzone=21,11 / fast_pskip=1 / chroma_qp_offset=-3 / threads=24 / lookahead_threads=3 / sliced_threads=0 / nr=0 / decimate=1 / interlaced=0 / bluray_compat=0 / constrained_intra=0 / bframes=3 / b_pyramid=2 / b_adapt=1 / b_bias=0 / direct=3 / weightb=1 / open_gop=0 / weightp=2 / keyint=250 / keyint_min=25 / scenecut=40 / intra_refresh=0 / rc_lookahead=50 / rc=2pass / mbtree=1 / bitrate=11500 / ratetol=1.0 / qcomp=0.60 / qpmin=0 / qpmax=69 / qpstep=4 / cplxblur=20.0 / qblur=0.5 / vbv_maxrate=31250 / vbv_bufsize=31250 / nal_hrd=none / filler=0 / ip_ratio=1.40 / aq=1:1.00
  26. Language                                 : Chinese
  27. Default                                  : Yes
  28. Forced                                   : No

  29. Audio
  30. ID                                       : 2
  31. Format                                   : DTS
  32. Format/Info                              : Digital Theater Systems
  33. Codec ID                                 : A_DTS
  34. Duration                                 : 1 h 49 min
  35. Bit rate mode                            : Constant
  36. Bit rate                                 : 1 509 kb/s
  37. Channel(s)                               : 6 channels
  38. Channel layout                           : C L R Ls Rs LFE
  39. Sampling rate                            : 48.0 kHz
  40. Frame rate                               : 93.750 FPS (512 SPF)
  41. Bit depth                                : 16 bits
  42. Compression mode                         : Lossy
  43. Stream size                              : 1.15 GiB (12%)
  44. Title                                    : The.Legend.of.Speed.1999.CHINESE.1080p.BluRay.x264.DTS-FGT
  45. Language                                 : Chinese
  46. Default                                  : Yes
  47. Forced                                   : No

  48. Text
  49. ID                                       : 3
  50. Format                                   : UTF-8
  51. Codec ID                                 : S_TEXT/UTF8
  52. Codec ID/Info                            : UTF-8 Plain Text
  53. Duration                                 : 1 h 45 min
  54. Bit rate                                 : 48 b/s
  55. Count of elements                        : 1390
  56. Stream size                              : 37.6 KiB (0%)
  57. Language                                 : English
  58. Default                                  : Yes
  59. Forced                                   : No

  60. Menu
  61. 00:00:00.000                             : en:Chapter 01
  62. 00:05:03.333                             : en:Chapter 02
  63. 00:09:39.375                             : en:Chapter 03
  64. 00:13:55.083                             : en:Chapter 04
  65. 00:19:14.500                             : en:Chapter 05
  66. 00:25:35.458                             : en:Chapter 06
  67. 00:29:55.416                             : en:Chapter 07
  68. 00:36:30.416                             : en:Chapter 08
  69. 00:40:44.958                             : en:Chapter 09
  70. 00:46:59.416                             : en:Chapter 10
  71. 00:53:16.958                             : en:Chapter 11
  72. 00:58:13.375                             : en:Chapter 12
  73. 01:03:26.625                             : en:Chapter 13
  74. 01:09:09.166                             : en:Chapter 14
  75. 01:15:07.833                             : en:Chapter 15
  76. 01:19:06.041                             : en:Chapter 16
  77. 01:25:14.250                             : en:Chapter 17
  78. 01:31:37.375                             : en:Chapter 18
  79. 01:36:55.000                             : en:Chapter 19
  80. 01:40:42.791                             : en:Chapter 20
  81. 01:49:10.875                             : en:Chapter 21
复制代码

猛火战车2:极速传闻 The.Legend.of.Speed.1999.CHINESE.1080p.BluRay.x264.DTS-FGT 9.92GB-2.png 猛火战车2:极速传闻 The.Legend.of.Speed.1999.CHINESE.1080p.BluRay.x264.DTS-FGT 9.92GB-3.png 猛火战车2:极速传闻 The.Legend.of.Speed.1999.CHINESE.1080p.BluRay.x264.DTS-FGT 9.92GB-4.png







VIP会员免费任意下载本站所有资源!---点击开通
回复

使用道具 举报

懒得打字嘛,点击右侧快捷回复 【右侧内容,后台自定义】
您需要登录后才可以回帖 登录 | 立即注册

本版积分规则

QQ|Archiver|手机版|小黑屋| 中国高清网 |网站地图 

GMT+8, 2019-11-15 08:44 , Processed in 0.244594 second(s), 37 queries .

Powered by HDchina X3.4

Copyright 2017-2019©HDchina.All right reserved

返回顶部 联系我们