查看: 35|回复: 0

[恐怖片] 阴影之中 Among.The.Shadow.2019.1080p.BluRay.x264-NTROPiC 6.55GB

[复制链接]

 成长值: 3230

级别:资源管理组

注册时间
2017-10-20
最后登录
2019-11-21
听众
1
收听
0
主题
87390
蓝光币
63616 枚
贡献
11749 点
发表于 2019-11-6 15:23:12 | 显示全部楼层 |阅读模式
阴影当中 Among.The.Shadow.2019.1080p.BluRay.x264-NTROPiC 6.55GB-1.png

译  名 阴影当中 / The Shadow Within
片  名 Among the Shadows
年  代 2019
产  地 美国
类  别 可骇 / 犯罪
语  言 英语
上映日期 2019-03-05(美国)
IMDb评分  2.1/10 from 452 users
IMDb链接  http://www.imdb.com/title/tt5206770
豆瓣评分 3.6/10 from 95 users
豆瓣链接 https://movie.douban.com/subject/26901238/
片  长 92分钟
导  演 Tiago Mesquita
编  剧 Mark Morgan
主  演 琳赛·洛翰 Lindsay Lohan
       Charlotte Beckett
       Gianni Capaldi
       Dominik Madani
       Reynald Bialès
       Barry Jay Minoff
       Kristoffel Verdonck
       John Flanders
       彼得·奥根 Peter Organ
       Bond Mgebrishvili


标  签 美国 | 奇葩烂片 | 琳赛·洛翰 | 惊悚 | 犯罪 | 电影 | 可骇 | 2019

简  介  

  一位私人侦察必须查出杀戮她叔叔的凶手,同时守旧她是狼人后代的奥秘……
  1. Video
  2. ID                                       : 1
  3. Format                                   : AVC
  4. Format/Info                              : Advanced Video Codec
  5. Format profile                           : High@L4
  6. Format settings                          : CABAC / 4 Ref Frames
  7. Format settings, CABAC                   : Yes
  8. Format settings, Reference frames        : 4 frames
  9. Codec ID                                 : V_MPEG4/ISO/AVC
  10. Duration                                 : 1 h 32 min
  11. Bit rate                                 : 8 673 kb/s
  12. Width                                    : 1 920 pixels
  13. Height                                   : 1 080 pixels
  14. Display aspect ratio                     : 16:9
  15. Frame rate mode                          : Constant
  16. Frame rate                               : 25.000 FPS
  17. Color space                              : YUV
  18. Chroma subsampling                       : 4:2:0
  19. Bit depth                                : 8 bits
  20. Scan type                                : Progressive
  21. Bits/(Pixel*Frame)                       : 0.167
  22. Stream size                              : 5.58 GiB (85%)
  23. Writing library                          : x264 core 157 r2969 d4099dd
  24. Encoding settings                        : cabac=1 / ref=4 / deblock=1:-1:-1 / analyse=0x3:0x133 / me=umh / subme=10 / psy=1 / psy_rd=0.95:0.00 / mixed_ref=1 / me_range=24 / chroma_me=1 / trellis=2 / 8x8dct=1 / cqm=0 / deadzone=21,11 / fast_pskip=0 / chroma_qp_offset=-4 / threads=18 / lookahead_threads=1 / sliced_threads=0 / slices=4 / nr=0 / decimate=1 / interlaced=0 / bluray_compat=0 / constrained_intra=0 / bframes=3 / b_pyramid=2 / b_adapt=2 / b_bias=0 / direct=3 / weightb=1 / open_gop=0 / weightp=2 / keyint=250 / keyint_min=25 / scenecut=40 / intra_refresh=0 / rc=2pass / mbtree=0 / bitrate=8673 / ratetol=2.0 / qcomp=0.60 / qpmin=0 / qpmax=69 / qpstep=4 / cplxblur=20.0 / qblur=0.5 / ip_ratio=1.40 / pb_ratio=1.30 / aq=2:0.80
  25. Language                                 : English
  26. Default                                  : Yes
  27. Forced                                   : No

  28. Audio
  29. ID                                       : 2
  30. Format                                   : DTS
  31. Format/Info                              : Digital Theater Systems
  32. Codec ID                                 : A_DTS
  33. Duration                                 : 1 h 32 min
  34. Bit rate mode                            : Constant
  35. Bit rate                                 : 1 509 kb/s
  36. Channel(s)                               : 6 channels
  37. Channel layout                           : C L R Ls Rs LFE
  38. Sampling rate                            : 48.0 kHz
  39. Frame rate                               : 93.750 FPS (512 SPF)
  40. Bit depth                                : 16 bits
  41. Compression mode                         : Lossy
  42. Stream size                              : 995 MiB (15%)
  43. Language                                 : English
  44. Default                                  : Yes
  45. Forced                                   : Yes

  46. Menu
  47. 00:00:00.000                             : en:Capitolo 01
  48. 00:07:52.400                             : en:Capitolo 02
  49. 00:14:44.000                             : en:Capitolo 03
  50. 00:24:12.120                             : en:Capitolo 04
  51. 00:31:39.200                             : en:Capitolo 05
  52. 00:40:06.040                             : en:Capitolo 06
  53. 00:47:19.920                             : en:Capitolo 07
  54. 00:55:57.080                             : en:Capitolo 08
  55. 01:04:00.440                             : en:Capitolo 09
  56. 01:12:01.880                             : en:Capitolo 10
  57. 01:20:12.600                             : en:Capitolo 11
  58. 01:28:42.840                             : en:Capitolo 12
复制代码

阴影当中 Among.The.Shadow.2019.1080p.BluRay.x264-NTROPiC 6.55GB-2.png







VIP会员免费任意下载本站所有资源!---点击开通
回复

使用道具 举报

懒得打字嘛,点击右侧快捷回复 【右侧内容,后台自定义】
您需要登录后才可以回帖 登录 | 立即注册

本版积分规则

QQ|Archiver|手机版|小黑屋| 中国高清网 |网站地图

GMT+8, 2019-11-22 06:18 , Processed in 0.214532 second(s), 37 queries .

Powered by HDchina X3.4

Copyright 2017-2019©HDchina.All right reserved

返回顶部 联系我们