查看: 8|回复: 0

[剧情片] 隐形人/幽灵人口 The.Invisible.2007.EXTENDED.1080p.AMZN.WEBRip.DDP5.1.x264-NTG 7.84GB

[复制链接]

 成长值: 3160

级别:资源管理组

注册时间
2017-10-20
最后登录
2019-11-11
听众
1
收听
0
主题
86761
蓝光币
61811 枚
贡献
11119 点
发表于 2019-11-6 15:20:56 | 显示全部楼层 |阅读模式
隐形人/鬼魂生齿 The.Invisible.2007.EXTENDED.1080p.AMZN.WEBRip.DDP5.1.x264-NTG 7.84GB-1.png

译  名 隐形人 / 鬼魂生齿 / 隐形追凶
片  名 The Invisible
年  代 2007
产  地 美国 / 加拿大
类  别 剧情 / 悬疑 / 惊悚 / 犯罪 / 奇异
语  言 英语
上映日期 2007-04-27
IMDb评分  6.2/10 from 33759 users
IMDb链接  https://www.imdb.com/title/tt0435670
豆瓣评分 6.5/10 from 5182 users
豆瓣链接 https://movie.douban.com/subject/1864491/
片  长 102 分钟
导  演 David S. Goyer
编  剧 Mick Davis / Christine Roum
主  演 Justin Chatwin
       Margarita Levieva
       Marcia Gay Harden
       Christopher Marquette
       Michelle Harrison


标  签 美国 | 科幻 | 悬疑 | 隐形人 | 灵异 | 美国电影 | 惊悚 | 2007

简  介  

  尼克(贾斯汀?钱特温 Justin Chatwin饰)诞生于富足的家庭,亦是黉舍里的劣等生。他胡想着可以成为墨客,但他的母亲却早已为他放置了今后的人生。他希望经过自己的尽力去实现胡想。
  安妮(玛格丽塔?列维伊娃 Margarita Levieva饰)和尼克在同一所高中,是一个题目少女,受家庭影响,整天游手好闲。
  在一宗盗窃案中,安妮被男友出售,却误以为是尼克告的密,遂与一帮朋友将尼克拖入树林暴打一顿。
  转天,尼克像平常一样去黉舍上课,却发现自己酿成了鬼魂一般的隐形人……
  1. Video
  2. ID                                       : 1
  3. Format                                   : AVC
  4. Format/Info                              : Advanced Video Codec
  5. Format profile                           : High@L4
  6. Format settings                          : CABAC / 4 Ref Frames
  7. Format settings, CABAC                   : Yes
  8. Format settings, Reference frames        : 4 frames
  9. Codec ID                                 : V_MPEG4/ISO/AVC
  10. Duration                                 : 1 h 51 min
  11. Bit rate mode                            : Constant
  12. Bit rate                                 : 9 436 kb/s
  13. Nominal bit rate                         : 10 000 kb/s
  14. Width                                    : 1 920 pixels
  15. Height                                   : 816 pixels
  16. Display aspect ratio                     : 2.35:1
  17. Frame rate mode                          : Constant
  18. Frame rate                               : 23.976 (24000/1001) FPS
  19. Color space                              : YUV
  20. Chroma subsampling                       : 4:2:0
  21. Bit depth                                : 8 bits
  22. Scan type                                : Progressive
  23. Bits/(Pixel*Frame)                       : 0.251
  24. Stream size                              : 7.34 GiB (94%)
  25. Default                                  : Yes
  26. Forced                                   : No
  27. Color range                              : Limited
  28. Color primaries                          : BT.709
  29. Transfer characteristics                 : BT.709
  30. Matrix coefficients                      : BT.709

  31. Audio
  32. ID                                       : 2
  33. Format                                   : E-AC-3
  34. Format/Info                              : Enhanced AC-3
  35. Commercial name                          : Dolby Digital Plus
  36. Codec ID                                 : A_EAC3
  37. Duration                                 : 1 h 51 min
  38. Bit rate mode                            : Constant
  39. Bit rate                                 : 640 kb/s
  40. Channel(s)                               : 6 channels
  41. Channel layout                           : L R C LFE Ls Rs
  42. Sampling rate                            : 48.0 kHz
  43. Frame rate                               : 31.250 FPS (1536 SPF)
  44. Compression mode                         : Lossy
  45. Stream size                              : 510 MiB (6%)
  46. Language                                 : English
  47. Service kind                             : Complete Main
  48. Default                                  : Yes
  49. Forced                                   : No

  50. Text #1
  51. ID                                       : 3
  52. Format                                   : UTF-8
  53. Codec ID                                 : S_TEXT/UTF8
  54. Codec ID/Info                            : UTF-8 Plain Text
  55. Duration                                 : 1 h 50 min
  56. Bit rate                                 : 43 b/s
  57. Count of elements                        : 1188
  58. Stream size                              : 35.4 KiB (0%)
  59. Language                                 : English
  60. Default                                  : No
  61. Forced                                   : No

  62. Text #2
  63. ID                                       : 4
  64. Format                                   : UTF-8
  65. Codec ID                                 : S_TEXT/UTF8
  66. Codec ID/Info                            : UTF-8 Plain Text
  67. Duration                                 : 1 h 50 min
  68. Bit rate                                 : 47 b/s
  69. Count of elements                        : 1312
  70. Stream size                              : 38.3 KiB (0%)
  71. Title                                    : SDH
  72. Language                                 : English
  73. Default                                  : No
  74. Forced                                   : No
复制代码

隐形人/鬼魂生齿 The.Invisible.2007.EXTENDED.1080p.AMZN.WEBRip.DDP5.1.x264-NTG 7.84GB-2.png 隐形人/鬼魂生齿 The.Invisible.2007.EXTENDED.1080p.AMZN.WEBRip.DDP5.1.x264-NTG 7.84GB-3.png 隐形人/鬼魂生齿 The.Invisible.2007.EXTENDED.1080p.AMZN.WEBRip.DDP5.1.x264-NTG 7.84GB-4.png







VIP会员免费任意下载本站所有资源!---点击开通
回复

使用道具 举报

懒得打字嘛,点击右侧快捷回复 【右侧内容,后台自定义】
您需要登录后才可以回帖 登录 | 立即注册

本版积分规则

QQ|Archiver|手机版|小黑屋| 中国高清网 |网站地图 

GMT+8, 2019-11-15 07:29 , Processed in 0.239479 second(s), 37 queries .

Powered by HDchina X3.4

Copyright 2017-2019©HDchina.All right reserved

返回顶部 联系我们