查看: 39|回复: 1

[喜剧片] 鬼作秀2/午夜鬼出笼 Creepshow.2.1987.ARROW.1080p.BluRay.x264.DTS-FGT 8.15GB

[复制链接]

 成长值: 3230

级别:资源管理组

注册时间
2017-10-20
最后登录
2019-11-21
听众
1
收听
0
主题
87390
蓝光币
63614 枚
贡献
11749 点
发表于 2019-11-6 15:16:31 | 显示全部楼层 |阅读模式
鬼做秀2/半夜鬼出笼 Creepshow.2.1987.ARROW.1080p.BluRay.x264.DTS-FGT 8.15GB-1.png

译  名 鬼做秀2 / 半夜鬼出笼 / 可骇的故事
片  名 Creepshow 2
年  代 1987
产  地 美国
类  别 笑剧 / 科幻 / 惊悚 / 可骇 / 奇异
语  言 英语
上映日期 1987-05-01(美国)
IMDb评分  6.1/10 from 20586 users
IMDb链接  https://www.imdb.com/title/tt0092796
豆瓣评分 7.4/10 from 3616 users
豆瓣链接 https://movie.douban.com/subject/1299767/
片  长 92 分钟
导  演 Michael Gornick
编  剧 乔治·A·罗梅罗 George A. Romero / Lucille Fletcher / 斯蒂芬·金 Stephen King
主  演 汤姆·萨维尼 Tom Savini
       乔治·肯尼迪 George Kennedy
       多萝西·拉莫尔 Dorothy Lamour
       霍特·麦克卡兰尼 Holt McCallany
       Dean Smith


标  签 可骇 | 美国 | 惊悚 | CULT | 美国电影 | 1987 | 分段故事 | 童年回忆

简  介  

  本片以分段式描写三个使人毛骨悚然的可骇故事。
  故事一:Old Chief Wood'nhead
  一个印第安人还魂后为被谋杀的小士多店东复仇;
  故事二:The Raft
  水池的食肉浮渣攻击小艇上的四个年轻人;
  故事三:Dawn Of The Dead
  富婆在和男妓风骚后的返家途中意外撞死一位搭便车的男人……
  1. Video
  2. ID                                       : 1
  3. Format                                   : AVC
  4. Format/Info                              : Advanced Video Codec
  5. Format profile                           : High@L4
  6. Format settings                          : CABAC / 4 Ref Frames
  7. Format settings, CABAC                   : Yes
  8. Format settings, Reference frames        : 4 frames
  9. Codec ID                                 : V_MPEG4/ISO/AVC
  10. Duration                                 : 1 h 29 min
  11. Bit rate                                 : 11.5 Mb/s
  12. Width                                    : 1 920 pixels
  13. Height                                   : 1 036 pixels
  14. Display aspect ratio                     : 1.85:1
  15. Frame rate mode                          : Constant
  16. Frame rate                               : 23.976 (24000/1001) FPS
  17. Color space                              : YUV
  18. Chroma subsampling                       : 4:2:0
  19. Bit depth                                : 8 bits
  20. Scan type                                : Progressive
  21. Bits/(Pixel*Frame)                       : 0.241
  22. Stream size                              : 7.20 GiB (88%)
  23. Title                                    : Creepshow.2.1987.ARROW.1080p.BluRay.x264.DTS-FGT
  24. Writing library                          : x264 core 148 r2748 97eaef2
  25. Encoding settings                        : cabac=1 / ref=4 / deblock=1:-2:-2 / analyse=0x3:0x113 / me=umh / subme=9 / psy=1 / psy_rd=1.00:0.15 / mixed_ref=1 / me_range=16 / chroma_me=1 / trellis=2 / 8x8dct=1 / cqm=0 / deadzone=21,11 / fast_pskip=1 / chroma_qp_offset=-3 / threads=24 / lookahead_threads=3 / sliced_threads=0 / nr=0 / decimate=1 / interlaced=0 / bluray_compat=0 / constrained_intra=0 / bframes=3 / b_pyramid=2 / b_adapt=1 / b_bias=0 / direct=3 / weightb=1 / open_gop=0 / weightp=2 / keyint=250 / keyint_min=25 / scenecut=40 / intra_refresh=0 / rc_lookahead=50 / rc=2pass / mbtree=1 / bitrate=11500 / ratetol=1.0 / qcomp=0.60 / qpmin=0 / qpmax=69 / qpstep=4 / cplxblur=20.0 / qblur=0.5 / vbv_maxrate=31250 / vbv_bufsize=31250 / nal_hrd=none / filler=0 / ip_ratio=1.40 / aq=1:1.00
  26. Language                                 : English
  27. Default                                  : Yes
  28. Forced                                   : No

  29. Audio
  30. ID                                       : 2
  31. Format                                   : DTS
  32. Format/Info                              : Digital Theater Systems
  33. Codec ID                                 : A_DTS
  34. Duration                                 : 1 h 29 min
  35. Bit rate mode                            : Constant
  36. Bit rate                                 : 1 509 kb/s
  37. Channel(s)                               : 6 channels
  38. Channel layout                           : C L R Ls Rs LFE
  39. Sampling rate                            : 48.0 kHz
  40. Frame rate                               : 93.750 FPS (512 SPF)
  41. Bit depth                                : 16 bits
  42. Compression mode                         : Lossy
  43. Stream size                              : 967 MiB (12%)
  44. Title                                    : Creepshow.2.1987.ARROW.1080p.BluRay.x264.DTS-FGT
  45. Language                                 : English
  46. Default                                  : Yes
  47. Forced                                   : No

  48. Text
  49. ID                                       : 3
  50. Format                                   : UTF-8
  51. Codec ID                                 : S_TEXT/UTF8
  52. Codec ID/Info                            : UTF-8 Plain Text
  53. Duration                                 : 1 h 24 min
  54. Bit rate                                 : 35 b/s
  55. Count of elements                        : 750
  56. Stream size                              : 22.0 KiB (0%)
  57. Language                                 : English
  58. Default                                  : Yes
  59. Forced                                   : No

  60. Menu
  61. 00:00:00.000                             : en:Chapter 01
  62. 00:09:21.811                             : en:Chapter 02
  63. 00:15:14.538                             : en:Chapter 03
  64. 00:25:11.384                             : en:Chapter 04
  65. 00:31:14.539                             : en:Chapter 05
  66. 00:35:39.387                             : en:Chapter 06
  67. 00:42:42.476                             : en:Chapter 07
  68. 00:49:27.839                             : en:Chapter 08
  69. 00:58:33.718                             : en:Chapter 09
  70. 01:06:52.717                             : en:Chapter 10
  71. 01:18:13.397                             : en:Chapter 11
  72. 01:25:49.269                             : en:Chapter 12
复制代码

151534mh21sfs9yths0ios.png 鬼做秀2/半夜鬼出笼 Creepshow.2.1987.ARROW.1080p.BluRay.x264.DTS-FGT 8.15GB-3.png 鬼做秀2/半夜鬼出笼 Creepshow.2.1987.ARROW.1080p.BluRay.x264.DTS-FGT 8.15GB-4.png







VIP会员免费任意下载本站所有资源!---点击开通
回复

使用道具 举报

级别:专业龙套 Lv.4

注册时间
2019-7-28
最后登录
2019-11-21
听众
4
收听
0
主题
0
蓝光币
164 枚
贡献
0 点
发表于 2019-11-7 00:17:03 | 显示全部楼层

楼主太厉害了!楼主,电影应该很好看我觉得中国高清电影网真是个好地方!
VIP会员免费任意下载本站所有资源!---点击开通
回复

使用道具 举报

懒得打字嘛,点击右侧快捷回复 【右侧内容,后台自定义】
您需要登录后才可以回帖 登录 | 立即注册

本版积分规则

QQ|Archiver|手机版|小黑屋| 中国高清网 |网站地图

GMT+8, 2019-11-22 05:05 , Processed in 0.242060 second(s), 37 queries .

Powered by HDchina X3.4

Copyright 2017-2019©HDchina.All right reserved

返回顶部 联系我们