查看: 58|回复: 0

[剧情片] RAILWAYS 给不能传达爱的大人们 Crossroads.2011.JAPANESE.1080p.BluRay.x264.DTS-FGT 11.20GB

[复制链接]

 成长值: 3230

级别:资源管理组

注册时间
2017-10-20
最后登录
2019-11-21
听众
1
收听
0
主题
87390
蓝光币
63614 枚
贡献
11749 点
发表于 2019-11-5 23:58:52 | 显示全部楼层 |阅读模式
RAILWAYS 给不能转达爱的大人们 Crossroads.2011.JAPANESE.1080p.BluRay.x264.DTS-FGT 11.20GB-1.png

译  名 RAILWAYS 给不能转达爱的大人们
片  名 RAILWAYS 愛を伝えられない大人たちへ
年  代 2011
产  地 日本
类  别 剧情 / 家庭
语  言 日语
上映日期 2011-12-03(日本)
IMDb评分  5.5/10 from 38 users
IMDb链接  https://www.imdb.com/title/tt1842448
豆瓣评分 7.6/10 from 563 users
豆瓣链接 https://movie.douban.com/subject/6424135/
片  长 123分钟
导  演 藏方政俊 Masatoshi Kurakata
编  剧 小林弘利 Hirotoshi Kobayashi / ブラジリィー?アン?山田
主  演 三浦友和 Tomokazu Miura
       余贵美子 Kimiko Yo
       小池荣子 Eiko Koike
       中尾明庆 Akinobu Nakao
       吉行和子 Kazuko Yoshiyuki
       塚本高史 Takashi Tsukamoto


标  签 日本电影 | 三浦友和 | 日本 | 2011 | 剧情 | 余贵美子 | 日影 | RAILWAYS

简  介  

  普通小镇富山,年近60的泷岛彻(三浦友和 饰)是一位有着42年驾驶经历的资深电车司机。他连结着35年无故障的记录,一心扑在工作的同时则疏忽了与家人的交换。再过一个月泷岛将迎来退休的时辰,他一面计划着退休后和妻子佐和子(余贵美子 饰)的落拓度假生活,一面又百感交集,依依不舍这个奉献终生的岗位。但是佐和子却向他提出希望重返护士岗位的要求,本就心存芥蒂的二报酬此大吵,佐和子更是愤而出走。来到公司,心情烦闷的泷岛又不能不承当起培育新人小田的重任。他始终没法知晓,妻子心中怀有怎样的奥秘与感受。
  退休的日子越来越近,而泷岛佳耦的婚姻似乎走到了绝顶……

获奖情况  

  第35届日本电影妹院奖(2012)
  最好男配角(提名) 三浦友和
  1. Video
  2. ID                                       : 1
  3. Format                                   : AVC
  4. Format/Info                              : Advanced Video Codec
  5. Format profile                           : High@L4
  6. Format settings                          : CABAC / 4 Ref Frames
  7. Format settings, CABAC                   : Yes
  8. Format settings, Reference frames        : 4 frames
  9. Codec ID                                 : V_MPEG4/ISO/AVC
  10. Duration                                 : 2 h 3 min
  11. Bit rate                                 : 11.5 Mb/s
  12. Width                                    : 1 912 pixels
  13. Height                                   : 800 pixels
  14. Display aspect ratio                     : 2.40:1
  15. Frame rate mode                          : Constant
  16. Frame rate                               : 23.976 (24000/1001) FPS
  17. Color space                              : YUV
  18. Chroma subsampling                       : 4:2:0
  19. Bit depth                                : 8 bits
  20. Scan type                                : Progressive
  21. Bits/(Pixel*Frame)                       : 0.314
  22. Stream size                              : 9.90 GiB (88%)
  23. Title                                    : Crossroads.2011.JAPANESE.1080p.BluRay.x264.DTS-FGT
  24. Writing library                          : x264 core 148 r2795M aaa9aa8
  25. Encoding settings                        : cabac=1 / ref=4 / deblock=1:-2:-2 / analyse=0x3:0x113 / me=umh / subme=9 / psy=1 / psy_rd=1.00:0.15 / mixed_ref=1 / me_range=16 / chroma_me=1 / trellis=2 / 8x8dct=1 / cqm=0 / deadzone=21,11 / fast_pskip=1 / chroma_qp_offset=-3 / threads=24 / lookahead_threads=3 / sliced_threads=0 / nr=0 / decimate=1 / interlaced=0 / bluray_compat=0 / constrained_intra=0 / bframes=3 / b_pyramid=2 / b_adapt=1 / b_bias=0 / direct=3 / weightb=1 / open_gop=0 / weightp=2 / keyint=250 / keyint_min=25 / scenecut=40 / intra_refresh=0 / rc_lookahead=50 / rc=2pass / mbtree=1 / bitrate=11500 / ratetol=1.0 / qcomp=0.60 / qpmin=0 / qpmax=69 / qpstep=4 / cplxblur=20.0 / qblur=0.5 / vbv_maxrate=31250 / vbv_bufsize=31250 / nal_hrd=none / filler=0 / ip_ratio=1.40 / aq=1:1.00
  26. Language                                 : Japanese
  27. Default                                  : Yes
  28. Forced                                   : No

  29. Audio
  30. ID                                       : 2
  31. Format                                   : DTS
  32. Format/Info                              : Digital Theater Systems
  33. Codec ID                                 : A_DTS
  34. Duration                                 : 2 h 3 min
  35. Bit rate mode                            : Constant
  36. Bit rate                                 : 1 509 kb/s
  37. Channel(s)                               : 6 channels
  38. Channel layout                           : C L R Ls Rs LFE
  39. Sampling rate                            : 48.0 kHz
  40. Frame rate                               : 93.750 FPS (512 SPF)
  41. Bit depth                                : 24 bits
  42. Compression mode                         : Lossy
  43. Stream size                              : 1.30 GiB (12%)
  44. Title                                    : Crossroads.2011.JAPANESE.1080p.BluRay.x264.DTS-FGT
  45. Language                                 : Japanese
  46. Default                                  : Yes
  47. Forced                                   : No

  48. Text
  49. ID                                       : 3
  50. Format                                   : UTF-8
  51. Codec ID                                 : S_TEXT/UTF8
  52. Codec ID/Info                            : UTF-8 Plain Text
  53. Duration                                 : 1 h 57 min
  54. Bit rate                                 : 26 b/s
  55. Count of elements                        : 850
  56. Stream size                              : 22.8 KiB (0%)
  57. Language                                 : English
  58. Default                                  : Yes
  59. Forced                                   : No

  60. Menu
  61. 00:00:00.000                             : en:Chapter 01
  62. 00:06:42.276                             : en:Chapter 02
  63. 00:19:22.911                             : en:Chapter 03
  64. 00:25:56.096                             : en:Chapter 04
  65. 00:34:44.082                             : en:Chapter 05
  66. 00:42:17.826                             : en:Chapter 06
  67. 00:51:34.091                             : en:Chapter 07
  68. 00:56:21.586                             : en:Chapter 08
  69. 01:01:40.905                             : en:Chapter 09
  70. 01:12:11.243                             : en:Chapter 10
  71. 01:19:24.301                             : en:Chapter 11
  72. 01:23:11.403                             : en:Chapter 12
  73. 01:35:57.793                             : en:Chapter 13
  74. 01:41:48.644                             : en:Chapter 14
  75. 01:44:20.128                             : en:Chapter 15
  76. 01:52:21.901                             : en:Chapter 16
  77. 01:59:03.886                             : en:Chapter 17
复制代码

RAILWAYS 给不能转达爱的大人们 Crossroads.2011.JAPANESE.1080p.BluRay.x264.DTS-FGT 11.20GB-2.png 235822yzoqza15aaavfuo5.png RAILWAYS 给不能转达爱的大人们 Crossroads.2011.JAPANESE.1080p.BluRay.x264.DTS-FGT 11.20GB-4.png







VIP会员免费任意下载本站所有资源!---点击开通
回复

使用道具 举报

懒得打字嘛,点击右侧快捷回复 【右侧内容,后台自定义】
您需要登录后才可以回帖 登录 | 立即注册

本版积分规则

QQ|Archiver|手机版|小黑屋| 中国高清网 |网站地图

GMT+8, 2019-11-22 04:43 , Processed in 0.228817 second(s), 37 queries .

Powered by HDchina X3.4

Copyright 2017-2019©HDchina.All right reserved

返回顶部 联系我们