查看: 29|回复: 0

[动作片] 凶枪血影 Naked.Alibi.1954.1080p.BluRay.x264.DTS-FGT 7.81GB

[复制链接]

 成长值: 3140

级别:资源管理组

注册时间
2017-10-20
最后登录
2019-11-11
听众
1
收听
0
主题
86761
蓝光币
61613 枚
贡献
11119 点
发表于 2019-11-5 23:54:44 | 显示全部楼层 |阅读模式
235358xsavcqrlcsiatiqc.png

译  名 凶枪血影
片  名 Naked Alibi
年  代 1954
产  地 美国
类  别 剧情 / 犯罪 / 黑色电影
语  言 英语
上映日期 1954
IMDb评分  6.5/10 from 663 users
IMDb链接  https://www.imdb.com/title/tt0047263
豆瓣评分 0/10 from 0 users
豆瓣链接 https://movie.douban.com/subject/5062254/
片  长 86 分钟
导  演 杰里·霍珀 Jerry Hopper
编  剧 劳伦斯·罗曼 Lawrence Roman
主  演 格洛丽亚·格雷厄姆 Gloria Grahame
       斯特林·海登 Sterling Hayden


标  签 美国 | 黑色电影 | 犯罪 | 剧情 | 50s | 1960 | 黑色 | 美国电影

简  介  

  Questioned as a murder suspect, solid (but drunk) citizen Al Willis attacks his police questioners, is beaten, and swears vengeance against them. Next night, Lieut. Parks is murdered; Willis is the only suspect in the eyes of tough Chief Conroy, who pursues him doggedly despite lack of evidence. The obsessed Conroy is dismissed from the force, but continues to harass Willis, who flees to a sleazy town on the Mexican border. Of course, Conroy follows. But which is crazy, Conroy or Willis?
  1. Video
  2. ID                                       : 1
  3. Format                                   : AVC
  4. Format/Info                              : Advanced Video Codec
  5. Format profile                           : High@L4
  6. Format settings                          : CABAC / 4 Ref Frames
  7. Format settings, CABAC                   : Yes
  8. Format settings, Reference frames        : 4 frames
  9. Codec ID                                 : V_MPEG4/ISO/AVC
  10. Duration                                 : 1 h 25 min
  11. Bit rate                                 : 11.5 Mb/s
  12. Width                                    : 1 920 pixels
  13. Height                                   : 1 036 pixels
  14. Display aspect ratio                     : 1.85:1
  15. Frame rate mode                          : Constant
  16. Frame rate                               : 23.976 (24000/1001) FPS
  17. Color space                              : YUV
  18. Chroma subsampling                       : 4:2:0
  19. Bit depth                                : 8 bits
  20. Scan type                                : Progressive
  21. Bits/(Pixel*Frame)                       : 0.241
  22. Stream size                              : 6.90 GiB (88%)
  23. Title                                    : Naked.Alibi.1954.1080p.BluRay.x264.DTS-FGT
  24. Writing library                          : x264 core 148 r2795M aaa9aa8
  25. Encoding settings                        : cabac=1 / ref=4 / deblock=1:-2:-2 / analyse=0x3:0x113 / me=umh / subme=9 / psy=1 / psy_rd=1.00:0.15 / mixed_ref=1 / me_range=16 / chroma_me=1 / trellis=2 / 8x8dct=1 / cqm=0 / deadzone=21,11 / fast_pskip=1 / chroma_qp_offset=-3 / threads=24 / lookahead_threads=3 / sliced_threads=0 / nr=0 / decimate=1 / interlaced=0 / bluray_compat=0 / constrained_intra=0 / bframes=3 / b_pyramid=2 / b_adapt=1 / b_bias=0 / direct=3 / weightb=1 / open_gop=0 / weightp=2 / keyint=250 / keyint_min=25 / scenecut=40 / intra_refresh=0 / rc_lookahead=50 / rc=2pass / mbtree=1 / bitrate=11500 / ratetol=1.0 / qcomp=0.60 / qpmin=0 / qpmax=69 / qpstep=4 / cplxblur=20.0 / qblur=0.5 / vbv_maxrate=31250 / vbv_bufsize=31250 / nal_hrd=none / filler=0 / ip_ratio=1.40 / aq=1:1.00
  26. Language                                 : English
  27. Default                                  : Yes
  28. Forced                                   : No

  29. Audio
  30. ID                                       : 2
  31. Format                                   : DTS
  32. Format/Info                              : Digital Theater Systems
  33. Codec ID                                 : A_DTS
  34. Duration                                 : 1 h 25 min
  35. Bit rate mode                            : Constant
  36. Bit rate                                 : 1 509 kb/s
  37. Channel(s)                               : 2 channels
  38. Channel layout                           : L R
  39. Sampling rate                            : 48.0 kHz
  40. Frame rate                               : 93.750 FPS (512 SPF)
  41. Bit depth                                : 16 bits
  42. Compression mode                         : Lossy
  43. Stream size                              : 927 MiB (12%)
  44. Title                                    : Naked.Alibi.1954.1080p.BluRay.x264.DTS-FGT
  45. Language                                 : English
  46. Default                                  : Yes
  47. Forced                                   : No

  48. Text
  49. ID                                       : 3
  50. Format                                   : UTF-8
  51. Codec ID                                 : S_TEXT/UTF8
  52. Codec ID/Info                            : UTF-8 Plain Text
  53. Duration                                 : 1 h 22 min
  54. Bit rate                                 : 51 b/s
  55. Count of elements                        : 1135
  56. Stream size                              : 31.4 KiB (0%)
  57. Language                                 : English
  58. Default                                  : Yes
  59. Forced                                   : No

  60. Menu
  61. 00:00:00.000                             : en:Chapter 00
  62. 00:14:22.820                             : en:Chapter 01
  63. 00:22:58.919                             : en:Chapter 02
  64. 00:34:09.922                             : en:Chapter 03
  65. 00:48:59.937                             : en:Chapter 04
  66. 00:59:25.562                             : en:Chapter 05
  67. 01:11:41.839                             : en:Chapter 06
  68. 01:18:42.884                             : en:Chapter 07
复制代码

235405g3m8hnsthfh8tgbk.png 凶枪血影 Naked.Alibi.1954.1080p.BluRay.x264.DTS-FGT 7.81GB-3.png 凶枪血影 Naked.Alibi.1954.1080p.BluRay.x264.DTS-FGT 7.81GB-4.png







VIP会员免费任意下载本站所有资源!---点击开通
回复

使用道具 举报

懒得打字嘛,点击右侧快捷回复 【右侧内容,后台自定义】
您需要登录后才可以回帖 登录 | 立即注册

本版积分规则

QQ|Archiver|手机版|小黑屋| 中国高清网 |网站地图 

GMT+8, 2019-11-13 17:05 , Processed in 0.223413 second(s), 37 queries .

Powered by HDchina X3.4

Copyright 2017-2019©HDchina.All right reserved

返回顶部 联系我们