查看: 34|回复: 0

[剧情片] 相信男人/相信人 Trust.the.Man.2005.1080p.BluRay.x264.DTS-FGT 8.53GB

[复制链接]

 成长值: 3210

级别:资源管理组

注册时间
2017-10-20
最后登录
2019-11-20
听众
1
收听
0
主题
87221
蓝光币
63004 枚
贡献
11580 点
发表于 2019-11-5 23:51:43 | 显示全部楼层 |阅读模式
相信汉子/相信人 Trust.the.Man.2005.1080p.BluRay.x264.DTS-FGT 8.53GB-1.png

译  名 相信汉子 / 相信人 / 相信你的汉子
片  名 Trust the Man
年  代 2005
产  地 美国
类  别 剧情 / 笑剧 / 恋爱 / 家庭
语  言 英语
上映日期 2005-09-12
IMDb评分  5.7/10 from 8217 users
IMDb链接  https://www.imdb.com/title/tt0427968
豆瓣评分 6.3/10 from 997 users
豆瓣链接 https://movie.douban.com/subject/1773127/
片  长 103分钟
导  演 巴特·弗伦德里希 Bart Freundlich
编  剧 巴特·弗伦德里希 Bart Freundlich
主  演 大卫·杜楚尼 David Duchovny
       朱丽安·摩尔 Julianne Moore
       玛吉·吉伦哈尔 Maggie Gyllenhaal
       比利·克鲁德普 Billy Crudup
       贾斯汀·巴萨 Justin Bartha
       伊娃·门德斯 Eva Mendes


标  签 美国 | 恋爱 | JulianneMoore | 美国电影 | 笑剧 | 家庭 | MaggieGyllenhaal | 2005

简  介  

  女演员丽贝卡(朱莉安 摩尔Julianne Moore饰)和洽友伊莱恩(玛姬 葛伦霍 Maggie Gyllenhaal饰)各自的豪情,似乎都说了然汉子不成信。丽贝卡有一本性欲兴旺在家待业的丈夫汤姆(大卫 杜契尼 David Duchovny饰),不外丈夫在婚姻中得不到性生活的满足,令他在围面的天下变得不胜一击。自从碰到孩子同妹的母亲后,二人就如同干柴猛火走到一路;而丽贝卡,一边为失利的婚仪倍感解体,一边亦面临着年轻小生的倾慕。
  伊莱恩是个作家,对婚姻大事很是忧心。她八年来的男朋友——丽贝卡的弟弟托比(比利·克鲁德普Billy Crudup 饰),历来不把成婚放在日程内外,她没法忍受指日可待的期待,因而挑选分手。而托比,亦和他的前度情人打得炽热,在落空伊莱恩以后,他才渐渐体味到她的无可替换。
  这两段豪情,看来已经千疮百孔了,丽贝卡和伊莱恩该就此罢休,还是还有起色……
  1. Video
  2. ID                                       : 1
  3. Format                                   : AVC
  4. Format/Info                              : Advanced Video Codec
  5. Format profile                           : High@L4
  6. Format settings                          : CABAC / 4 Ref Frames
  7. Format settings, CABAC                   : Yes
  8. Format settings, Reference frames        : 4 frames
  9. Codec ID                                 : V_MPEG4/ISO/AVC
  10. Duration                                 : 1 h 39 min
  11. Bit rate                                 : 11.5 Mb/s
  12. Width                                    : 1 920 pixels
  13. Height                                   : 1 080 pixels
  14. Display aspect ratio                     : 16:9
  15. Frame rate mode                          : Constant
  16. Frame rate                               : 23.976 (24000/1001) FPS
  17. Color space                              : YUV
  18. Chroma subsampling                       : 4:2:0
  19. Bit depth                                : 8 bits
  20. Scan type                                : Progressive
  21. Bits/(Pixel*Frame)                       : 0.231
  22. Stream size                              : 7.99 GiB (94%)
  23. Title                                    : Trust.the.Man.2005.1080p.BluRay.x264.DTS-FGT
  24. Writing library                          : x264 core 148 r2748 97eaef2
  25. Encoding settings                        : cabac=1 / ref=4 / deblock=1:-2:-2 / analyse=0x3:0x113 / me=umh / subme=9 / psy=1 / psy_rd=1.00:0.15 / mixed_ref=1 / me_range=16 / chroma_me=1 / trellis=2 / 8x8dct=1 / cqm=0 / deadzone=21,11 / fast_pskip=1 / chroma_qp_offset=-3 / threads=24 / lookahead_threads=3 / sliced_threads=0 / nr=0 / decimate=1 / interlaced=0 / bluray_compat=0 / constrained_intra=0 / bframes=3 / b_pyramid=2 / b_adapt=1 / b_bias=0 / direct=3 / weightb=1 / open_gop=0 / weightp=2 / keyint=250 / keyint_min=25 / scenecut=40 / intra_refresh=0 / rc_lookahead=50 / rc=2pass / mbtree=1 / bitrate=11500 / ratetol=1.0 / qcomp=0.60 / qpmin=0 / qpmax=69 / qpstep=4 / cplxblur=20.0 / qblur=0.5 / vbv_maxrate=31250 / vbv_bufsize=31250 / nal_hrd=none / filler=0 / ip_ratio=1.40 / aq=1:1.00
  26. Language                                 : English
  27. Default                                  : Yes
  28. Forced                                   : No

  29. Audio
  30. ID                                       : 2
  31. Format                                   : DTS
  32. Format/Info                              : Digital Theater Systems
  33. Codec ID                                 : A_DTS
  34. Duration                                 : 1 h 39 min
  35. Bit rate mode                            : Constant
  36. Bit rate                                 : 768 kb/s
  37. Channel(s)                               : 2 channels
  38. Channel layout                           : L R
  39. Sampling rate                            : 48.0 kHz
  40. Frame rate                               : 93.750 FPS (512 SPF)
  41. Bit depth                                : 16 bits
  42. Compression mode                         : Lossy
  43. Stream size                              : 547 MiB (6%)
  44. Title                                    : Trust.the.Man.2005.1080p.BluRay.x264.DTS-FGT
  45. Language                                 : English
  46. Default                                  : Yes
  47. Forced                                   : No

  48. Text
  49. ID                                       : 3
  50. Format                                   : UTF-8
  51. Codec ID                                 : S_TEXT/UTF8
  52. Codec ID/Info                            : UTF-8 Plain Text
  53. Duration                                 : 1 h 33 min
  54. Bit rate                                 : 69 b/s
  55. Count of elements                        : 1373
  56. Stream size                              : 47.4 KiB (0%)
  57. Language                                 : English
  58. Default                                  : Yes
  59. Forced                                   : No

  60. Menu
  61. 00:00:00.000                             : en:Chapter 01
  62. 00:02:19.347                             : en:Chapter 02
  63. 00:09:35.992                             : en:Chapter 03
  64. 00:15:36.101                             : en:Chapter 04
  65. 00:19:51.940                             : en:Chapter 05
  66. 00:24:42.189                             : en:Chapter 06
  67. 00:30:16.397                             : en:Chapter 07
  68. 00:34:39.202                             : en:Chapter 08
  69. 00:39:42.630                             : en:Chapter 09
  70. 00:45:05.869                             : en:Chapter 10
  71. 00:50:50.589                             : en:Chapter 11
  72. 00:55:39.377                             : en:Chapter 12
  73. 01:00:06.686                             : en:Chapter 13
  74. 01:05:32.637                             : en:Chapter 14
  75. 01:12:11.702                             : en:Chapter 15
  76. 01:15:33.570                             : en:Chapter 16
  77. 01:20:47.384                             : en:Chapter 17
  78. 01:25:59.821                             : en:Chapter 18
  79. 01:31:59.013                             : en:Chapter 19
  80. 01:34:55.272                             : en:Chapter 20
复制代码

相信汉子/相信人 Trust.the.Man.2005.1080p.BluRay.x264.DTS-FGT 8.53GB-2.png 相信汉子/相信人 Trust.the.Man.2005.1080p.BluRay.x264.DTS-FGT 8.53GB-3.png 相信汉子/相信人 Trust.the.Man.2005.1080p.BluRay.x264.DTS-FGT 8.53GB-4.png







VIP会员免费任意下载本站所有资源!---点击开通
回复

使用道具 举报

懒得打字嘛,点击右侧快捷回复 【右侧内容,后台自定义】
您需要登录后才可以回帖 登录 | 立即注册

本版积分规则

QQ|Archiver|手机版|小黑屋| 中国高清网 |网站地图

GMT+8, 2019-11-20 09:05 , Processed in 0.246388 second(s), 37 queries .

Powered by HDchina X3.4

Copyright 2017-2019©HDchina.All right reserved

返回顶部 联系我们