查看: 13|回复: 0

[恐怖片] 怪形故事2 Things.II.1998.720p.WEBRip.x264-ASSOCiATE 1.40GB

[复制链接]

 成长值: 3160

级别:资源管理组

注册时间
2017-10-20
最后登录
2019-11-15
听众
1
收听
0
主题
86812
蓝光币
61954 枚
贡献
11170 点
发表于 2019-11-5 21:30:07 | 显示全部楼层 |阅读模式
怪形故事2 Things.II.1998.720p.WEBRip.x264-ASSOCiATE 1.40GB-1.png

译  名 怪形故事2
片  名 Things II
年  代 1998
产  地 美国
类  别 可骇
IMDb评分  4.8/10 from 28 users
IMDb链接  https://www.imdb.com/title/tt0178935
豆瓣评分 0/10 from 0 users
豆瓣链接 https://movie.douban.com/subject/27012661/
导  演 Mike Bowler, Dennis Devine
编  剧 Mike Bowler, Dennis Devine

标  签 分段式

简  介  

  一位作家勾引一个送披萨的女孩进了他的屋子,然后向她报告了他比来的两个可怕的故事。
  1. Video
  2. ID                                       : 1
  3. Format                                   : AVC
  4. Format/Info                              : Advanced Video Codec
  5. Format profile                           : High@L4
  6. Format settings                          : CABAC / 5 Ref Frames
  7. Format settings, CABAC                   : Yes
  8. Format settings, Reference frames        : 5 frames
  9. Codec ID                                 : V_MPEG4/ISO/AVC
  10. Duration                                 : 1 h 19 min
  11. Bit rate                                 : 2 396 kb/s
  12. Width                                    : 982 pixels
  13. Height                                   : 720 pixels
  14. Display aspect ratio                     : 4:3
  15. Frame rate mode                          : Constant
  16. Frame rate                               : 29.970 (30000/1001) FPS
  17. Color space                              : YUV
  18. Chroma subsampling                       : 4:2:0
  19. Bit depth                                : 8 bits
  20. Scan type                                : Progressive
  21. Bits/(Pixel*Frame)                       : 0.113
  22. Stream size                              : 1.33 GiB (95%)
  23. Writing library                          : x264 core 158 r2984 3759fcb
  24. Encoding settings                        : cabac=1 / ref=5 / deblock=1:-3:-3 / analyse=0x3:0x113 / me=hex / subme=8 / psy=1 / psy_rd=1.00:0.15 / mixed_ref=1 / me_range=16 / chroma_me=1 / trellis=2 / 8x8dct=1 / cqm=0 / deadzone=21,11 / fast_pskip=1 / chroma_qp_offset=-3 / threads=6 / lookahead_threads=1 / sliced_threads=0 / nr=0 / decimate=1 / interlaced=0 / bluray_compat=0 / constrained_intra=0 / bframes=3 / b_pyramid=2 / b_adapt=1 / b_bias=0 / direct=3 / weightb=1 / open_gop=0 / weightp=2 / keyint=250 / keyint_min=25 / scenecut=40 / intra_refresh=0 / rc_lookahead=50 / rc=crf / mbtree=1 / crf=18.0 / qcomp=0.60 / qpmin=0 / qpmax=69 / qpstep=4 / vbv_maxrate=17500 / vbv_bufsize=17500 / crf_max=0.0 / nal_hrd=none / filler=0 / ip_ratio=1.40 / aq=1:0.60
  25. Default                                  : Yes
  26. Forced                                   : No
  27. Color range                              : Limited
  28. Matrix coefficients                      : BT.709

  29. Audio
  30. ID                                       : 2
  31. Format                                   : AAC LC
  32. Format/Info                              : Advanced Audio Codec Low Complexity
  33. Codec ID                                 : A_AAC-2
  34. Duration                                 : 1 h 19 min
  35. Bit rate                                 : 126 kb/s
  36. Channel(s)                               : 2 channels
  37. Channel layout                           : L R
  38. Sampling rate                            : 44.1 kHz
  39. Frame rate                               : 43.066 FPS (1024 SPF)
  40. Compression mode                         : Lossy
  41. Stream size                              : 71.5 MiB (5%)
  42. Language                                 : English
  43. Default                                  : Yes
  44. Forced                                   : No

  45. Text
  46. ID                                       : 3
  47. Format                                   : UTF-8
  48. Codec ID                                 : S_TEXT/UTF8
  49. Codec ID/Info                            : UTF-8 Plain Text
  50. Duration                                 : 1 h 17 min
  51. Bit rate                                 : 63 b/s
  52. Count of elements                        : 1243
  53. Stream size                              : 35.8 KiB (0%)
  54. Language                                 : English
  55. Default                                  : No
  56. Forced                                   : No
复制代码

怪形故事2 Things.II.1998.720p.WEBRip.x264-ASSOCiATE 1.40GB-2.png







VIP会员免费任意下载本站所有资源!---点击开通
回复

使用道具 举报

懒得打字嘛,点击右侧快捷回复 【右侧内容,后台自定义】
您需要登录后才可以回帖 登录 | 立即注册

本版积分规则

QQ|Archiver|手机版|小黑屋| 中国高清网 |网站地图 

GMT+8, 2019-11-15 21:36 , Processed in 0.224627 second(s), 37 queries .

Powered by HDchina X3.4

Copyright 2017-2019©HDchina.All right reserved

返回顶部 联系我们