查看: 7|回复: 0

[喜剧片] 理查德·普赖尔:单口现场 Richard.Pryor.Live.in.Concert.1979.1080p.NF.WEBRip.DDP2.0.x264-monkee 2.87GB

[复制链接]

 成长值: 3160

级别:资源管理组

注册时间
2017-10-20
最后登录
2019-11-11
听众
1
收听
0
主题
86761
蓝光币
61811 枚
贡献
11119 点
发表于 2019-11-5 17:45:31 | 显示全部楼层 |阅读模式
ad79fd92e283c.png

译  名 理查德·普赖尔:单口现场
片  名 Richard Pryor: Live in Concert
年  代 1979
产  地 美国
类  别 笑剧 / 记载片
语  言 英语
IMDb评分  8.2/10 from 4013 users
IMDb链接  https://www.imdb.com/title/tt0079807
豆瓣评分 8.4/10 from 85 users
豆瓣链接 https://movie.douban.com/subject/2969883/
片  长 78 分钟
导  演 Jeff Margolis
编  剧 理查德·普赖尔 Richard Pryor
主  演 理查德·普赖尔 Richard Pryor


标  签 脱口秀 | 美国 | 笑剧 | stand-up | Comedy | Standup-Comedy | Richard_Pryor | 综艺

简  介  

  暂无相关剧情先容
  1. Video
  2. ID                                       : 1
  3. Format                                   : AVC
  4. Format/Info                              : Advanced Video Codec
  5. Format profile                           : High@L4
  6. Format settings                          : CABAC / 3 Ref Frames
  7. Format settings, CABAC                   : Yes
  8. Format settings, Reference frames        : 3 frames
  9. Codec ID                                 : V_MPEG4/ISO/AVC
  10. Duration                                 : 1 h 18 min
  11. Bit rate mode                            : Variable
  12. Bit rate                                 : 5 110 kb/s
  13. Maximum bit rate                         : 7 665 kb/s
  14. Width                                    : 1 920 pixels
  15. Height                                   : 1 080 pixels
  16. Display aspect ratio                     : 16:9
  17. Frame rate mode                          : Constant
  18. Frame rate                               : 23.976 (24000/1001) FPS
  19. Color space                              : YUV
  20. Chroma subsampling                       : 4:2:0
  21. Bit depth                                : 8 bits
  22. Scan type                                : Progressive
  23. Bits/(Pixel*Frame)                       : 0.103
  24. Stream size                              : 2.80 GiB (98%)
  25. Writing library                          : x264 core 118
  26. Encoding settings                        : cabac=1 / ref=3 / deblock=1:0:0 / analyse=0x1:0x111 / me=umh / subme=10 / psy=1 / psy_rd=1.00:0.00 / mixed_ref=1 / me_range=24 / chroma_me=1 / trellis=2 / 8x8dct=0 / cqm=0 / deadzone=21,11 / fast_pskip=1 / chroma_qp_offset=-2 / threads=6 / sliced_threads=0 / nr=0 / decimate=1 / interlaced=0 / bluray_compat=0 / constrained_intra=0 / bframes=2 / b_pyramid=0 / b_adapt=2 / b_bias=0 / direct=3 / weightb=1 / open_gop=0 / weightp=2 / keyint=48 / keyint_min=25 / scenecut=0 / intra_refresh=0 / rc_lookahead=0 / rc=2pass / mbtree=1 / bitrate=5110 / ratetol=1.0 / qcomp=0.50 / qpmin=6 / qpmax=51 / qpstep=4 / cplxblur=20.0 / qblur=0.5 / vbv_maxrate=7665 / vbv_bufsize=10220 / nal_hrd=vbr / ip_ratio=1.40 / aq=1:1.00
  27. Default                                  : Yes
  28. Forced                                   : No

  29. Audio
  30. ID                                       : 2
  31. Format                                   : E-AC-3
  32. Format/Info                              : Enhanced AC-3
  33. Commercial name                          : Dolby Digital Plus
  34. Codec ID                                 : A_EAC3
  35. Duration                                 : 1 h 18 min
  36. Bit rate mode                            : Constant
  37. Bit rate                                 : 128 kb/s
  38. Channel(s)                               : 2 channels
  39. Channel layout                           : L R
  40. Sampling rate                            : 48.0 kHz
  41. Frame rate                               : 31.250 FPS (1536 SPF)
  42. Compression mode                         : Lossy
  43. Stream size                              : 71.9 MiB (2%)
  44. Language                                 : English
  45. Service kind                             : Complete Main
  46. Default                                  : Yes
  47. Forced                                   : No

  48. Text #1
  49. ID                                       : 3
  50. Format                                   : UTF-8
  51. Codec ID                                 : S_TEXT/UTF8
  52. Codec ID/Info                            : UTF-8 Plain Text
  53. Duration                                 : 1 h 17 min
  54. Bit rate                                 : 92 b/s
  55. Count of elements                        : 1291
  56. Stream size                              : 52.3 KiB (0%)
  57. Language                                 : English
  58. Default                                  : No
  59. Forced                                   : No

  60. Text #2
  61. ID                                       : 4
  62. Format                                   : UTF-8
  63. Codec ID                                 : S_TEXT/UTF8
  64. Codec ID/Info                            : UTF-8 Plain Text
  65. Duration                                 : 1 h 18 min
  66. Bit rate                                 : 73 b/s
  67. Count of elements                        : 1121
  68. Stream size                              : 42.1 KiB (0%)
  69. Language                                 : Spanish
  70. Default                                  : No
  71. Forced                                   : No

  72. Text #3
  73. ID                                       : 5
  74. Format                                   : UTF-8
  75. Codec ID                                 : S_TEXT/UTF8
  76. Codec ID/Info                            : UTF-8 Plain Text
  77. Duration                                 : 1 h 18 min
  78. Bit rate                                 : 77 b/s
  79. Count of elements                        : 1120
  80. Stream size                              : 44.4 KiB (0%)
  81. Language                                 : French
  82. Default                                  : No
  83. Forced                                   : No

  84. Text #4
  85. ID                                       : 6
  86. Format                                   : UTF-8
  87. Codec ID                                 : S_TEXT/UTF8
  88. Codec ID/Info                            : UTF-8 Plain Text
  89. Duration                                 : 1 h 18 min
  90. Bit rate                                 : 68 b/s
  91. Count of elements                        : 1121
  92. Stream size                              : 39.4 KiB (0%)
  93. Title                                    : Simplified
  94. Language                                 : Chinese
  95. Default                                  : No
  96. Forced                                   : No

  97. Text #5
  98. ID                                       : 7
  99. Format                                   : UTF-8
  100. Codec ID                                 : S_TEXT/UTF8
  101. Codec ID/Info                            : UTF-8 Plain Text
  102. Duration                                 : 1 h 18 min
  103. Bit rate                                 : 69 b/s
  104. Count of elements                        : 1121
  105. Stream size                              : 40.1 KiB (0%)
  106. Title                                    : Traditional
  107. Language                                 : Chinese
  108. Default                                  : No
  109. Forced                                   : No
复制代码

理查德·普赖尔:单口现场 Richard.Pryor.Live.in.Concert.1979.1080p.NF.WEBRip.DDP2.0.x264-monkee 2.87GB-2.png 理查德·普赖尔:单口现场 Richard.Pryor.Live.in.Concert.1979.1080p.NF.WEBRip.DDP2.0.x264-monkee 2.87GB-3.png 理查德·普赖尔:单口现场 Richard.Pryor.Live.in.Concert.1979.1080p.NF.WEBRip.DDP2.0.x264-monkee 2.87GB-4.png 理查德·普赖尔:单口现场 Richard.Pryor.Live.in.Concert.1979.1080p.NF.WEBRip.DDP2.0.x264-monkee 2.87GB-5.png 174216n7j9z0osvl4a9w4a.png 理查德·普赖尔:单口现场 Richard.Pryor.Live.in.Concert.1979.1080p.NF.WEBRip.DDP2.0.x264-monkee 2.87GB-7.png







VIP会员免费任意下载本站所有资源!---点击开通
回复

使用道具 举报

懒得打字嘛,点击右侧快捷回复 【右侧内容,后台自定义】
您需要登录后才可以回帖 登录 | 立即注册

本版积分规则

QQ|Archiver|手机版|小黑屋| 中国高清网 |网站地图 

GMT+8, 2019-11-15 07:28 , Processed in 0.239093 second(s), 37 queries .

Powered by HDchina X3.4

Copyright 2017-2019©HDchina.All right reserved

返回顶部 联系我们