查看: 8|回复: 0

[剧情片] 母亲的春天 The.Mother.2003.1080p.AMZN.WEBRip.DDP5.1.x264-NTb 11.31GB

[复制链接]

 成长值: 3140

级别:资源管理组

注册时间
2017-10-20
最后登录
2019-11-11
听众
1
收听
0
主题
86761
蓝光币
61613 枚
贡献
11119 点
发表于 2019-11-5 16:27:27 | 显示全部楼层 |阅读模式
母亲的春季 The.Mother.2003.1080p.AMZN.WEBRip.DDP5.1.x264-NTb 11.31GB-1.png

译  名 母亲的春季
片  名 The Mother
年  代 2003
产  地 英国
类  别 剧情 / 恋爱
语  言 英语
上映日期 2003-10-09
IMDb评分  6.7/10 from 3823 users
IMDb链接  https://www.imdb.com/title/tt0323298
豆瓣评分 6.9/10 from 200 users
豆瓣链接 https://movie.douban.com/subject/1442622/
片  长 112 分钟
导  演 罗杰·米歇尔 Roger Michell
编  剧 汉尼夫·库雷什 Hanif Kureishi
主  演 安妮·雷德 Anne Reid
       丹尼尔·克雷格 Daniel Craig
       斯蒂文·麦金托什 Steven Mackintosh


标  签 英国 | 伦理 | 英国电影 | 恋爱 | DanielCraig | 2003 | 丹尼尔·克雷格 | 母亲的春季

简  介  

  安妮·瑞德饰演60多岁的母亲may,在伦敦的女儿Paula的住处和丹尼尔·克雷格饰演的女儿的男朋友发生了一场希奇的忘年爱情。当女儿发现自己的男朋友和自己的母亲居然发生了不服常的关系时,一场家庭战争就起头了!母亲最初会做出什么样的决定呢?

获奖情况  

  第57届英国电影妹院奖(2004)
  电影奖 最好女配角(提名) 安妮·雷德

  第7届上海国际电影节(2004)
  金爵奖 最好影片(提名) 罗杰·米歇尔
  1. Video
  2. ID                                       : 1
  3. Format                                   : AVC
  4. Format/Info                              : Advanced Video Codec
  5. Format profile                           : High@L4
  6. Format settings                          : CABAC / 4 Ref Frames
  7. Format settings, CABAC                   : Yes
  8. Format settings, Reference frames        : 4 frames
  9. Codec ID                                 : V_MPEG4/ISO/AVC
  10. Duration                                 : 1 h 52 min
  11. Bit rate                                 : 13.8 Mb/s
  12. Width                                    : 1 920 pixels
  13. Height                                   : 1 040 pixels
  14. Display aspect ratio                     : 1.85:1
  15. Frame rate mode                          : Constant
  16. Frame rate                               : 23.976 (24000/1001) FPS
  17. Color space                              : YUV
  18. Chroma subsampling                       : 4:2:0
  19. Bit depth                                : 8 bits
  20. Scan type                                : Progressive
  21. Bits/(Pixel*Frame)                       : 0.288
  22. Stream size                              : 10.8 GiB (96%)
  23. Default                                  : Yes
  24. Forced                                   : No
  25. Color range                              : Limited
  26. Color primaries                          : BT.709
  27. Transfer characteristics                 : BT.709
  28. Matrix coefficients                      : BT.709

  29. Audio
  30. ID                                       : 2
  31. Format                                   : E-AC-3
  32. Format/Info                              : Enhanced AC-3
  33. Commercial name                          : Dolby Digital Plus
  34. Codec ID                                 : A_EAC3
  35. Duration                                 : 1 h 52 min
  36. Bit rate mode                            : Constant
  37. Bit rate                                 : 640 kb/s
  38. Channel(s)                               : 6 channels
  39. Channel layout                           : L R C LFE Ls Rs
  40. Sampling rate                            : 48.0 kHz
  41. Frame rate                               : 31.250 FPS (1536 SPF)
  42. Compression mode                         : Lossy
  43. Stream size                              : 513 MiB (4%)
  44. Language                                 : English
  45. Service kind                             : Complete Main
  46. Default                                  : Yes
  47. Forced                                   : No

  48. Text
  49. ID                                       : 3
  50. Format                                   : UTF-8
  51. Codec ID                                 : S_TEXT/UTF8
  52. Codec ID/Info                            : UTF-8 Plain Text
  53. Duration                                 : 1 h 45 min
  54. Bit rate                                 : 59 b/s
  55. Count of elements                        : 1685
  56. Stream size                              : 45.7 KiB (0%)
  57. Title                                    : SDH
  58. Language                                 : English
  59. Default                                  : No
  60. Forced                                   : No
复制代码

母亲的春季 The.Mother.2003.1080p.AMZN.WEBRip.DDP5.1.x264-NTb 11.31GB-2.png 母亲的春季 The.Mother.2003.1080p.AMZN.WEBRip.DDP5.1.x264-NTb 11.31GB-3.png 母亲的春季 The.Mother.2003.1080p.AMZN.WEBRip.DDP5.1.x264-NTb 11.31GB-4.png







VIP会员免费任意下载本站所有资源!---点击开通
回复

使用道具 举报

懒得打字嘛,点击右侧快捷回复 【右侧内容,后台自定义】
您需要登录后才可以回帖 登录 | 立即注册

本版积分规则

QQ|Archiver|手机版|小黑屋| 中国高清网 |网站地图 

GMT+8, 2019-11-13 17:04 , Processed in 0.248817 second(s), 37 queries .

Powered by HDchina X3.4

Copyright 2017-2019©HDchina.All right reserved

返回顶部 联系我们