查看: 34|回复: 0

[动作片] 十字追杀令3 Cross.3.2019.1080p.WEB-DL.DD5.1.H264-FGT 3.89GB

[复制链接]

 成长值: 3230

级别:资源管理组

注册时间
2017-10-20
最后登录
2019-11-21
听众
1
收听
0
主题
87390
蓝光币
63614 枚
贡献
11749 点
发表于 2019-11-4 19:59:00 | 显示全部楼层 |阅读模式
MV5BNWU3MWRhMjItZDA0Yy00OWQ3LWI1MzYtZmJhYWZhNjRkYWRiXkEyXkFqcGdeQXVyNjUyNDkyMjQ@.jpg

译  名 十字追杀令3
片  名 Cross 3
年  代 2020
产  地 美国
类  别 行动
语  言 英语
IMDb链接  https://www.imdb.com/title/tt6197400
豆瓣评分 0/10 from 0 users
豆瓣链接 https://movie.douban.com/subject/33384699/
导  演 Patrick Durham
编  剧 Patrick Durham
主  演 布莱恩·奥斯汀·格林 Brian Austin Green
       汤姆·塞兹摩尔 Tom Sizemore
       维尼·琼斯 Vinnie Jones
       丹尼·特雷霍 Danny Trejo


简  介  

  暂无相关剧情先容
  1. Video
  2. ID                                       : 1
  3. Format                                   : AVC
  4. Format/Info                              : Advanced Video Codec
  5. Format profile                           : High@L4
  6. Format settings                          : CABAC / 4 Ref Frames
  7. Format settings, CABAC                   : Yes
  8. Format settings, Reference frames        : 4 frames
  9. Codec ID                                 : V_MPEG4/ISO/AVC
  10. Duration                                 : 1 h 40 min
  11. Bit rate                                 : 5 186 kb/s
  12. Width                                    : 1 920 pixels
  13. Height                                   : 1 080 pixels
  14. Display aspect ratio                     : 16:9
  15. Frame rate mode                          : Constant
  16. Frame rate                               : 23.976 FPS
  17. Color space                              : YUV
  18. Chroma subsampling                       : 4:2:0
  19. Bit depth                                : 8 bits
  20. Scan type                                : Progressive
  21. Bits/(Pixel*Frame)                       : 0.104
  22. Stream size                              : 3.62 GiB (93%)
  23. Title                                    : Cross.3.2019.1080p.WEB-DL.DD5.1.H264-FGT
  24. Language                                 : English
  25. Default                                  : Yes
  26. Forced                                   : No
  27. Color range                              : Limited
  28. Color primaries                          : BT.709
  29. Transfer characteristics                 : BT.709
  30. Matrix coefficients                      : BT.709

  31. Audio
  32. ID                                       : 2
  33. Format                                   : AC-3
  34. Format/Info                              : Audio Coding 3
  35. Commercial name                          : Dolby Digital
  36. Codec ID                                 : A_AC3
  37. Duration                                 : 1 h 40 min
  38. Bit rate mode                            : Constant
  39. Bit rate                                 : 384 kb/s
  40. Channel(s)                               : 6 channels
  41. Channel layout                           : L R C LFE Ls Rs
  42. Sampling rate                            : 48.0 kHz
  43. Frame rate                               : 31.250 FPS (1536 SPF)
  44. Bit depth                                : 16 bits
  45. Compression mode                         : Lossy
  46. Stream size                              : 275 MiB (7%)
  47. Title                                    : Cross.3.2019.1080p.WEB-DL.DD5.1.H264-FGT
  48. Language                                 : English
  49. Service kind                             : Complete Main
  50. Default                                  : Yes
  51. Forced                                   : No

  52. Text
  53. ID                                       : 3
  54. Format                                   : UTF-8
  55. Codec ID                                 : S_TEXT/UTF8
  56. Codec ID/Info                            : UTF-8 Plain Text
  57. Duration                                 : 1 h 37 min
  58. Bit rate                                 : 88 b/s
  59. Count of elements                        : 1626
  60. Stream size                              : 63.4 KiB (0%)
  61. Language                                 : English
  62. Default                                  : Yes
  63. Forced                                   : No

  64. Menu
  65. 00:00:00.000                             : en:1
  66. 00:05:11.519                             : en:2
  67. 00:12:00.177                             : en:3
  68. 00:18:26.520                             : en:4
  69. 00:25:40.578                             : en:5
  70. 00:29:15.960                             : en:6
  71. 00:35:28.749                             : en:7
  72. 00:43:48.457                             : en:8
  73. 00:48:54.721                             : en:9
  74. 00:53:16.190                             : en:10
  75. 01:01:49.494                             : en:11
  76. 01:05:59.869                             : en:12
  77. 01:13:21.935                             : en:13
  78. 01:17:56.500                             : en:14
  79. 01:24:20.050                             : en:15
  80. 01:31:25.682                             : en:16
复制代码

十字追杀令3 Cross.3.2019.1080p.WEB-DL.DD5.1.H264-FGT 3.89GB-1.png 十字追杀令3 Cross.3.2019.1080p.WEB-DL.DD5.1.H264-FGT 3.89GB-2.png 十字追杀令3 Cross.3.2019.1080p.WEB-DL.DD5.1.H264-FGT 3.89GB-3.png







VIP会员免费任意下载本站所有资源!---点击开通
回复

使用道具 举报

懒得打字嘛,点击右侧快捷回复 【右侧内容,后台自定义】
您需要登录后才可以回帖 登录 | 立即注册

本版积分规则

QQ|Archiver|手机版|小黑屋| 中国高清网 |网站地图

GMT+8, 2019-11-22 02:37 , Processed in 0.229520 second(s), 37 queries .

Powered by HDchina X3.4

Copyright 2017-2019©HDchina.All right reserved

返回顶部 联系我们