查看: 13|回复: 0

[喜剧片] 小屋诡事 Tales.From.The.Lodge.2019.1080p.WEB-DL.DD5.1.H264-FGT 3.23GB

[复制链接]

 成长值: 3140

级别:资源管理组

注册时间
2017-10-20
最后登录
2019-11-11
听众
1
收听
0
主题
86761
蓝光币
61615 枚
贡献
11119 点
发表于 2019-11-4 19:46:33 | 显示全部楼层 |阅读模式
小屋诡事 Tales.From.The.Lodge.2019.1080p.WEB-DL.DD5.1.H264-FGT 3.23GB-1.png

译  名 小屋诡事
片  名 Tales from the Lodge
年  代 2019
产  地 英国
类  别 笑剧 / 可骇
语  言 英语
上映日期 2019-03-19(西南偏南电影节)
IMDb评分  5.3/10 from 50 users
IMDb链接  https://www.imdb.com/title/tt4522922
豆瓣评分 0/10 from 0 users
豆瓣链接 https://movie.douban.com/subject/30466324/
导  演 Abigail Blackmore
编  剧 Abigail Blackmore
主  演 麦肯锡·克鲁克 Mackenzie Crook
       Dustin Demri-Burns
       劳拉·弗雷泽 Laura Fraser


标  签 笑剧 | 英國 | 英国电影 | 英国 | 海报设想 | 可骇 | AbigailBlackmore | 2019

简  介  

  Tales From The Lodge is a fresh take on the portmanteau horror-comedy genre. An isolated lodge somewhere in England. Five old university pals, now nudging 40, gather for a weekend to scatter the ashes of their friend, Jonesy, who drowned himself in the lake three years earlier. They settle in for a fun evening, entertaining each other with stories of murders, ghosts, zombies and possessions, but as day turns to night, the gang become aware of another horror story unfolding around them - And this one is real.
  1. Video
  2. ID                                       : 1
  3. Format                                   : AVC
  4. Format/Info                              : Advanced Video Codec
  5. Format profile                           : High@L4
  6. Format settings                          : CABAC / 5 Ref Frames
  7. Format settings, CABAC                   : Yes
  8. Format settings, Reference frames        : 5 frames
  9. Codec ID                                 : V_MPEG4/ISO/AVC
  10. Duration                                 : 1 h 33 min
  11. Bit rate                                 : 4 581 kb/s
  12. Width                                    : 1 916 pixels
  13. Height                                   : 852 pixels
  14. Display aspect ratio                     : 2.25:1
  15. Frame rate mode                          : Constant
  16. Frame rate                               : 24.000 FPS
  17. Color space                              : YUV
  18. Chroma subsampling                       : 4:2:0
  19. Bit depth                                : 8 bits
  20. Scan type                                : Progressive
  21. Bits/(Pixel*Frame)                       : 0.117
  22. Stream size                              : 2.98 GiB (92%)
  23. Title                                    : Tales.From.The.Lodge.2019.1080p.WEB-DL.DD5.1.H264-FGT
  24. Language                                 : English
  25. Default                                  : Yes
  26. Forced                                   : No
  27. Color range                              : Limited
  28. Color primaries                          : BT.709
  29. Transfer characteristics                 : BT.709
  30. Matrix coefficients                      : BT.709

  31. Audio
  32. ID                                       : 2
  33. Format                                   : AC-3
  34. Format/Info                              : Audio Coding 3
  35. Commercial name                          : Dolby Digital
  36. Codec ID                                 : A_AC3
  37. Duration                                 : 1 h 33 min
  38. Bit rate mode                            : Constant
  39. Bit rate                                 : 384 kb/s
  40. Channel(s)                               : 6 channels
  41. Channel layout                           : L R C LFE Ls Rs
  42. Sampling rate                            : 48.0 kHz
  43. Frame rate                               : 31.250 FPS (1536 SPF)
  44. Bit depth                                : 16 bits
  45. Compression mode                         : Lossy
  46. Stream size                              : 256 MiB (8%)
  47. Title                                    : Tales.From.The.Lodge.2019.1080p.WEB-DL.DD5.1.H264-FGT
  48. Language                                 : English
  49. Service kind                             : Complete Main
  50. Default                                  : Yes
  51. Forced                                   : No

  52. Menu
  53. 00:00:00.000                             : en:1
  54. 00:19:25.000                             : en:2
  55. 00:49:37.000                             : en:3
  56. 01:05:15.000                             : en:4
  57. 01:30:05.000                             : en:5
复制代码

小屋诡事 Tales.From.The.Lodge.2019.1080p.WEB-DL.DD5.1.H264-FGT 3.23GB-2.png 小屋诡事 Tales.From.The.Lodge.2019.1080p.WEB-DL.DD5.1.H264-FGT 3.23GB-3.png 小屋诡事 Tales.From.The.Lodge.2019.1080p.WEB-DL.DD5.1.H264-FGT 3.23GB-4.png







VIP会员免费任意下载本站所有资源!---点击开通
回复

使用道具 举报

懒得打字嘛,点击右侧快捷回复 【右侧内容,后台自定义】
您需要登录后才可以回帖 登录 | 立即注册

本版积分规则

QQ|Archiver|手机版|小黑屋| 中国高清网 |网站地图 

GMT+8, 2019-11-13 17:43 , Processed in 0.302173 second(s), 37 queries .

Powered by HDchina X3.4

Copyright 2017-2019©HDchina.All right reserved

返回顶部 联系我们