查看: 14|回复: 0

[剧情片] 幸福 Euforia.2018.ITALIAN.1080p.NF.WEBRip.DDP5.1.x264-IKA 3.03GB

[复制链接]

 成长值: 3210

级别:资源管理组

注册时间
2017-10-20
最后登录
2019-11-20
听众
1
收听
0
主题
87221
蓝光币
63004 枚
贡献
11580 点
发表于 2019-11-4 19:26:45 | 显示全部楼层 |阅读模式
幸运 Euforia.2018.ITALIAN.1080p.NF.WEBRip.DDP5.1.x264-IKA 3.03GB-1.png

译  名 幸运 / Euphoria / 幸运圈套(台) / 手足緣未了(港)
片  名 Euforia
年  代 2018
产  地 意大利
类  别 剧情
语  言 意大利语
上映日期 2018-05-15(戛纳电影节) / 2018-10-25(意大利)
IMDb评分  6.7/10 from 511 users
IMDb链接  https://www.imdb.com/title/tt7779590
豆瓣评分 0/10 from 0 users
豆瓣链接 https://movie.douban.com/subject/30170828/
片  长 115分钟
导  演 瓦莱丽亚·戈利诺 Valeria Golino
编  剧 瓦莱丽亚·戈利诺 Valeria Golino / 弗朗西斯卡·马西亚诺 Francesca Marciano
主  演 里卡多·斯卡马乔 Riccardo Scamarcio
       瓦莱里奥·马斯坦德雷亚 Valerio Mastandrea
       伊沙贝拉·法雷利 Isabella Ferrari
       瓦伦蒂娜·切尔维 Valentina Cervi
       杰丝敏·特丽卡 Jasmine Trinca


标  签 意大利 | 2018 | 剧情 | 意大利电影 | 同性 | 人生 | 一种关注 | 2018戛纳

简  介  

  Matteo(Riccardo Scamarcio)是位成功的年轻企业家。他大胆、讨喜、布满活力。他的兄弟Ettore(Valerio Mastrandrea)是名中妹教师,仍然在两人诞生的小城里生活。这是一个谨慎、正直、惧怕出错,不敢冒险,希望一向躲在阴影里的汉子。两人虽然性情悬殊,但生活却迫使他们相互靠近。在悲喜交集的生活漩涡中,艰难的条件成为两兄弟相互领会、相互摸索的契机。

获奖情况  

  第71届戛纳电影节(2018)
  一种关注单元 一种关注大奖(提名) 瓦莱丽亚·戈利诺
  同道金棕榈奖(提名) 瓦莱丽亚·戈利诺

  第64届意大利大卫奖(2019)
  最好影片(提名)
  最好导演(提名) 瓦莱丽亚·戈利诺
  最好原创剧本(提名) 瓦利亚·拿泰拉 / 弗朗西斯卡·马西亚诺 / 瓦莱丽亚·戈利诺
  最好男配角(提名) 里卡多·斯卡马乔
  最好男配角(提名) 瓦莱里奥·马斯坦德雷亚
  最好音乐(提名)
  最好剪辑(提名)
  1. Video
  2. ID                                       : 1
  3. Format                                   : AVC
  4. Format/Info                              : Advanced Video Codec
  5. Format profile                           : High@L4
  6. Format settings                          : CABAC / 3 Ref Frames
  7. Format settings, CABAC                   : Yes
  8. Format settings, Reference frames        : 3 frames
  9. Codec ID                                 : V_MPEG4/ISO/AVC
  10. Duration                                 : 1 h 49 min
  11. Bit rate mode                            : Variable
  12. Bit rate                                 : 3 320 kb/s
  13. Maximum bit rate                         : 4 980 kb/s
  14. Width                                    : 1 920 pixels
  15. Height                                   : 1 080 pixels
  16. Display aspect ratio                     : 16:9
  17. Frame rate mode                          : Constant
  18. Frame rate                               : 25.000 FPS
  19. Color space                              : YUV
  20. Chroma subsampling                       : 4:2:0
  21. Bit depth                                : 8 bits
  22. Scan type                                : Progressive
  23. Bits/(Pixel*Frame)                       : 0.064
  24. Stream size                              : 2.54 GiB (84%)
  25. Writing library                          : x264 core 148 r2715 7e75228
  26. Encoding settings                        : cabac=1 / ref=3 / deblock=1:0:0 / analyse=0x1:0x111 / me=umh / subme=10 / psy=1 / psy_rd=1.00:0.00 / mixed_ref=1 / me_range=24 / chroma_me=1 / trellis=2 / 8x8dct=0 / cqm=0 / deadzone=21,11 / fast_pskip=1 / chroma_qp_offset=-2 / threads=8 / lookahead_threads=1 / sliced_threads=0 / nr=0 / decimate=1 / interlaced=0 / bluray_compat=0 / stitchable=1 / constrained_intra=0 / bframes=2 / b_pyramid=0 / b_adapt=2 / b_bias=0 / direct=3 / weightb=1 / open_gop=0 / weightp=2 / keyint=250 / keyint_min=25 / scenecut=0 / intra_refresh=0 / rc_lookahead=50 / rc=2pass / mbtree=1 / bitrate=3320 / ratetol=1.0 / qcomp=0.50 / qpmin=6 / qpmax=51 / qpstep=4 / cplxblur=20.0 / qblur=0.5 / vbv_maxrate=4980 / vbv_bufsize=6640 / nal_hrd=vbr / filler=0 / ip_ratio=1.40 / aq=1:1.00
  27. Default                                  : Yes
  28. Forced                                   : No

  29. Audio
  30. ID                                       : 2
  31. Format                                   : E-AC-3
  32. Format/Info                              : Enhanced AC-3
  33. Commercial name                          : Dolby Digital Plus
  34. Codec ID                                 : A_EAC3
  35. Duration                                 : 1 h 49 min
  36. Bit rate mode                            : Constant
  37. Bit rate                                 : 640 kb/s
  38. Channel(s)                               : 6 channels
  39. Channel layout                           : L R C LFE Ls Rs
  40. Sampling rate                            : 48.0 kHz
  41. Frame rate                               : 31.250 FPS (1536 SPF)
  42. Compression mode                         : Lossy
  43. Stream size                              : 502 MiB (16%)
  44. Language                                 : Italian
  45. Service kind                             : Complete Main
  46. Default                                  : Yes
  47. Forced                                   : No

  48. Text #1
  49. ID                                       : 3
  50. Format                                   : UTF-8
  51. Codec ID                                 : S_TEXT/UTF8
  52. Codec ID/Info                            : UTF-8 Plain Text
  53. Duration                                 : 1 h 44 min
  54. Bit rate                                 : 51 b/s
  55. Count of elements                        : 1307
  56. Stream size                              : 39.7 KiB (0%)
  57. Title                                    : SDH
  58. Language                                 : English
  59. Default                                  : No
  60. Forced                                   : No

  61. Text #2
  62. ID                                       : 4
  63. Format                                   : UTF-8
  64. Codec ID                                 : S_TEXT/UTF8
  65. Codec ID/Info                            : UTF-8 Plain Text
  66. Duration                                 : 1 h 42 min
  67. Bit rate                                 : 56 b/s
  68. Count of elements                        : 1317
  69. Stream size                              : 42.7 KiB (0%)
  70. Language                                 : Spanish
  71. Default                                  : No
  72. Forced                                   : No

  73. Text #3
  74. ID                                       : 5
  75. Format                                   : UTF-8
  76. Codec ID                                 : S_TEXT/UTF8
  77. Codec ID/Info                            : UTF-8 Plain Text
  78. Duration                                 : 1 h 42 min
  79. Bit rate                                 : 50 b/s
  80. Count of elements                        : 1253
  81. Stream size                              : 38.1 KiB (0%)
  82. Title                                    : Brazilian
  83. Language                                 : Portuguese
  84. Default                                  : No
  85. Forced                                   : No
复制代码

幸运 Euforia.2018.ITALIAN.1080p.NF.WEBRip.DDP5.1.x264-IKA 3.03GB-2.png 幸运 Euforia.2018.ITALIAN.1080p.NF.WEBRip.DDP5.1.x264-IKA 3.03GB-3.png 幸运 Euforia.2018.ITALIAN.1080p.NF.WEBRip.DDP5.1.x264-IKA 3.03GB-4.png







VIP会员免费任意下载本站所有资源!---点击开通
回复

使用道具 举报

懒得打字嘛,点击右侧快捷回复 【右侧内容,后台自定义】
您需要登录后才可以回帖 登录 | 立即注册

本版积分规则

QQ|Archiver|手机版|小黑屋| 中国高清网 |网站地图

GMT+8, 2019-11-20 09:06 , Processed in 0.289363 second(s), 37 queries .

Powered by HDchina X3.4

Copyright 2017-2019©HDchina.All right reserved

返回顶部 联系我们