查看: 12|回复: 0

[剧情片] 格伦·坎贝尔:我就是我 Glen.Campbell.Ill.Be.Me.2014.1080p.AMZN.WEBRip.DDP5.1.x264-QOQ 7.71GB

[复制链接]

 成长值: 3160

级别:资源管理组

注册时间
2017-10-20
最后登录
2019-11-11
听众
1
收听
0
主题
86761
蓝光币
61861 枚
贡献
11119 点
发表于 2019-11-4 19:24:48 | 显示全部楼层 |阅读模式
格伦·坎贝尔:我就是我 Glen.Campbell.Ill.Be.Me.2014.1080p.AMZN.WEBRip.DDP5.1.x264-QOQ 7.71GB-1.png

译  名 格伦·坎贝尔:我就是我
片  名 Glen Campbell: I'll Be Me
年  代 2014
产  地 美国
类  别 剧情 / 记载片 / 音乐 / 家庭 / 列传
语  言 英语
上映日期 2014-10-24(美国)
IMDb评分  8.0/10 from 1400 users
IMDb链接  https://www.imdb.com/title/tt2049586
豆瓣评分 0/10 from 0 users
豆瓣链接 https://movie.douban.com/subject/7065209/
片  长 116分钟
导  演 詹姆斯·基彻 James Keach
主  演 格伦·坎贝尔 Glen Campbell
       Scott Borchetta
       Ashley Campbell
       Cal Campbell
       Kim Campbell
       Shannon Campbell
       Debby Campbell-Cloyd
       John Carter Cash
       比尔·克林顿 Bill Clinton
       雪儿·克劳 Sheryl Crow
       Vincent Gil
       Buddy Jewell
       杰·雷诺 Jay Leno
       Bill Maclay
       保罗·麦卡特尼 Paul McCartney


标  签 记载片 | 美国 | 列传 | 音乐 | 村落音乐 | 2014 | 记载 | 剧情

简  介  

  This powerful portrait of the life and career of great American music icon Glen Campbell opens to the viewer the world of the singular talent who created hits like Rhinestone Cowboy, Wichita Lineman and Gentle on My Mind. Winner of the Grammy for Lifetime Achievement and member of the Country Music Hall of Fame, Glen was the first country music star to cross over to the pop charts, opening a new realm of opportunity for generations of country musicians. In 2011, when Campbell was diagnosed with Alzheimer's disease, he joined forces with his family to fight the biggest battle of his life. Glen and his wife, Kim, made history by going public with the diagnosis - the first time a major American celebrity would share this experience with the world. The Campbell family then embarked on a short "Goodbye Tour," but the three-week engagement turned into an emotional and triumphant 151-show nationwide tour de force. This epic human drama about the undying bond between Glen and Kim, and their unwavering caring for each other, chronicles a story of love, resilience and the power of song. GLEN CAMPBELL...I'LL BE ME is the true tale of how America's greatest country star would not give up his music or his family, against all odds. The film features those who know and love Glen, including Bruce Springsteen, Bill Clinton, The Edge, Paul McCartney, Jay Leno, Vince Gill, Jimmy Webb, Blake Shelton, Sheryl Crow, Keith Urban, Brad Paisley, Steve Martin, Chad Smith and Taylor Swift among many others. Rare vintage footage and extraordinary new performances of Glen's most beloved hits immerse this moving cinematic account in the overwhelming talent of this humble family man. With joy and a tireless sense of humor, Glen and his family live each moment in the present while preparing for the future, all while playing their music to sold out venues on a star spangled voyage spanning the country from Carnegie Hall to the Hollywood Bowl.

获奖情况  

  第87届奥斯卡金像奖(2015)
  最好原创歌曲(提名) 朱利安·雷蒙德 / 格伦·坎贝尔
  1. Video
  2. ID                                       : 1
  3. Format                                   : AVC
  4. Format/Info                              : Advanced Video Codec
  5. Format profile                           : High@L4
  6. Format settings                          : CABAC / 4 Ref Frames
  7. Format settings, CABAC                   : Yes
  8. Format settings, Reference frames        : 4 frames
  9. Codec ID                                 : V_MPEG4/ISO/AVC
  10. Duration                                 : 1 h 44 min
  11. Bit rate mode                            : Constant
  12. Bit rate                                 : 10 000 kb/s
  13. Width                                    : 1 920 pixels
  14. Height                                   : 1 080 pixels
  15. Display aspect ratio                     : 16:9
  16. Frame rate mode                          : Constant
  17. Frame rate                               : 23.976 (24000/1001) FPS
  18. Color space                              : YUV
  19. Chroma subsampling                       : 4:2:0
  20. Bit depth                                : 8 bits
  21. Scan type                                : Progressive
  22. Bits/(Pixel*Frame)                       : 0.201
  23. Stream size                              : 7.24 GiB (94%)
  24. Language                                 : English
  25. Default                                  : Yes
  26. Forced                                   : No
  27. Color range                              : Limited
  28. Color primaries                          : BT.709
  29. Transfer characteristics                 : BT.709
  30. Matrix coefficients                      : BT.709

  31. Audio
  32. ID                                       : 2
  33. Format                                   : E-AC-3
  34. Format/Info                              : Enhanced AC-3
  35. Commercial name                          : Dolby Digital Plus
  36. Codec ID                                 : A_EAC3
  37. Duration                                 : 1 h 44 min
  38. Bit rate mode                            : Constant
  39. Bit rate                                 : 640 kb/s
  40. Channel(s)                               : 6 channels
  41. Channel layout                           : L R C LFE Ls Rs
  42. Sampling rate                            : 48.0 kHz
  43. Frame rate                               : 31.250 FPS (1536 SPF)
  44. Compression mode                         : Lossy
  45. Stream size                              : 479 MiB (6%)
  46. Language                                 : English
  47. Service kind                             : Complete Main
  48. Default                                  : Yes
  49. Forced                                   : No

  50. Text #1
  51. ID                                       : 3
  52. Format                                   : UTF-8
  53. Codec ID                                 : S_TEXT/UTF8
  54. Codec ID/Info                            : UTF-8 Plain Text
  55. Duration                                 : 1 h 43 min
  56. Bit rate                                 : 85 b/s
  57. Count of elements                        : 1980
  58. Stream size                              : 65.0 KiB (0%)
  59. Language                                 : English
  60. Default                                  : No
  61. Forced                                   : No

  62. Text #2
  63. ID                                       : 4
  64. Format                                   : UTF-8
  65. Codec ID                                 : S_TEXT/UTF8
  66. Codec ID/Info                            : UTF-8 Plain Text
  67. Duration                                 : 1 h 44 min
  68. Bit rate                                 : 89 b/s
  69. Count of elements                        : 2123
  70. Stream size                              : 68.2 KiB (0%)
  71. Title                                    : SDH
  72. Language                                 : English
  73. Default                                  : No
  74. Forced                                   : No
复制代码

192401ih2yhh2z2zgnpw2c.png 格伦·坎贝尔:我就是我 Glen.Campbell.Ill.Be.Me.2014.1080p.AMZN.WEBRip.DDP5.1.x264-QOQ 7.71GB-3.png 格伦·坎贝尔:我就是我 Glen.Campbell.Ill.Be.Me.2014.1080p.AMZN.WEBRip.DDP5.1.x264-QOQ 7.71GB-4.png







VIP会员免费任意下载本站所有资源!---点击开通
回复

使用道具 举报

懒得打字嘛,点击右侧快捷回复 【右侧内容,后台自定义】
您需要登录后才可以回帖 登录 | 立即注册

本版积分规则

QQ|Archiver|手机版|小黑屋| 中国高清网 |网站地图 

GMT+8, 2019-11-15 10:58 , Processed in 0.261294 second(s), 37 queries .

Powered by HDchina X3.4

Copyright 2017-2019©HDchina.All right reserved

返回顶部 联系我们