查看: 9|回复: 0

[剧情片] 爱有来世/发现 The.Discovery.2017.1080p.NF.WEBRip.DD5.1.x264-TrollHD 3.54GB

[复制链接]

 成长值: 3230

级别:资源管理组

注册时间
2017-10-20
最后登录
2019-11-21
听众
1
收听
0
主题
87390
蓝光币
63614 枚
贡献
11749 点
发表于 2019-11-4 17:06:03 | 显示全部楼层 |阅读模式
爱有来世/发现 The.Discovery.2017.1080p.NF.WEBRip.DD5.1.x264-TrollHD 3.54GB-1.png

译  名 爱有来世 / 发现
片  名 The Discovery
年  代 2017
产  地 美国
类  别 剧情 / 恋爱 / 科幻 / 悬疑
语  言 英语
上映日期 2017-01-20(圣丹斯电影节) / 2017-03-31(美国)
IMDb评分  6.3/10 from 25698 users
IMDb链接  https://www.imdb.com/title/tt5155780
豆瓣评分 6.2/10 from 3931 users
豆瓣链接 https://movie.douban.com/subject/26652937/
片  长 110分钟
导  演 查理·麦克道威尔 Charlie McDowell
编  剧 查理·麦克道威尔 Charlie McDowell / 贾斯汀·莱徳 Justin Lader
主  演 罗伯特·雷德福 Robert Redford
       玛丽·斯汀伯根 Mary Steenburgen
       布莱恩·麦卡锡 Brian McCarthy
       杰森·席格尔 Jason Segel
       鲁妮·玛拉 Rooney Mara
       杰西·普莱蒙 Jesse Plemons
       罗恩·坎纳达 Ron Canada
       丽莉·克亚芙 Riley Keough
       康纳拉·特利夫 Connor Ratliff
       M·J·卡密 M.J. Karmi
       金姆利·史姑娘 Kimleigh Smith
       威利·C·卡彭特 Willie C. Carpenter
       温迪·麦凯纳 Wendy Makkena
       亚当·海金 Adam Khaykin


标  签 科幻 | 美国 | 恋爱 | 2017 | 来世 | 悬疑 | 平行天下 | 剧情

简  介  

  在“来世”被科妹证实存在的一年后,数以百万计的人希望竣事生命以到达来世。此时一对男女坠入爱河,却要同时面临他们悲痛的曩昔和来世的真相。
  1. Video
  2. ID                                       : 1
  3. Format                                   : AVC
  4. Format/Info                              : Advanced Video Codec
  5. Format profile                           : High@L4
  6. Format settings                          : CABAC / 4 Ref Frames
  7. Format settings, CABAC                   : Yes
  8. Format settings, Reference frames        : 4 frames
  9. Codec ID                                 : V_MPEG4/ISO/AVC
  10. Duration                                 : 1 h 42 min
  11. Bit rate                                 : 4 565 kb/s
  12. Width                                    : 1 920 pixels
  13. Height                                   : 800 pixels
  14. Display aspect ratio                     : 2.40:1
  15. Frame rate mode                          : Constant
  16. Frame rate                               : 23.976 (24000/1001) FPS
  17. Color space                              : YUV
  18. Chroma subsampling                       : 4:2:0
  19. Bit depth                                : 8 bits
  20. Scan type                                : Progressive
  21. Bits/(Pixel*Frame)                       : 0.124
  22. Stream size                              : 3.27 GiB (92%)
  23. Writing library                          : x264 core 148 r2638 7599210
  24. Encoding settings                        : cabac=1 / ref=4 / deblock=1:-3:-3 / analyse=0x3:0x133 / me=umh / subme=10 / psy=1 / psy_rd=1.00:0.00 / mixed_ref=1 / me_range=48 / chroma_me=1 / trellis=2 / 8x8dct=1 / cqm=0 / deadzone=21,11 / fast_pskip=1 / chroma_qp_offset=-2 / threads=24 / lookahead_threads=4 / sliced_threads=0 / nr=0 / decimate=0 / interlaced=0 / bluray_compat=0 / constrained_intra=0 / bframes=8 / b_pyramid=2 / b_adapt=2 / b_bias=0 / direct=3 / weightb=1 / open_gop=0 / weightp=2 / keyint=240 / keyint_min=23 / scenecut=40 / intra_refresh=0 / rc=crf / mbtree=0 / crf=17.0 / qcomp=0.60 / qpmin=0 / qpmax=69 / qpstep=4 / ip_ratio=1.30 / pb_ratio=1.20 / aq=3:0.70
  25. Default                                  : Yes
  26. Forced                                   : No

  27. Audio
  28. ID                                       : 2
  29. Format                                   : AC-3
  30. Format/Info                              : Audio Coding 3
  31. Commercial name                          : Dolby Digital
  32. Codec ID                                 : A_AC3
  33. Duration                                 : 1 h 42 min
  34. Bit rate mode                            : Constant
  35. Bit rate                                 : 384 kb/s
  36. Channel(s)                               : 6 channels
  37. Channel layout                           : L R C LFE Ls Rs
  38. Sampling rate                            : 48.0 kHz
  39. Frame rate                               : 31.250 FPS (1536 SPF)
  40. Bit depth                                : 16 bits
  41. Compression mode                         : Lossy
  42. Stream size                              : 281 MiB (8%)
  43. Language                                 : English
  44. Service kind                             : Complete Main
  45. Default                                  : Yes
  46. Forced                                   : No

  47. Text #1
  48. ID                                       : 3
  49. Format                                   : UTF-8
  50. Codec ID                                 : S_TEXT/UTF8
  51. Codec ID/Info                            : UTF-8 Plain Text
  52. Duration                                 : 1 h 41 min
  53. Bit rate                                 : 61 b/s
  54. Count of elements                        : 1204
  55. Stream size                              : 45.6 KiB (0%)
  56. Language                                 : English
  57. Default                                  : Yes
  58. Forced                                   : No

  59. Text #2
  60. ID                                       : 4
  61. Format                                   : UTF-8
  62. Codec ID                                 : S_TEXT/UTF8
  63. Codec ID/Info                            : UTF-8 Plain Text
  64. Duration                                 : 1 h 41 min
  65. Bit rate                                 : 57 b/s
  66. Count of elements                        : 1117
  67. Stream size                              : 42.6 KiB (0%)
  68. Language                                 : Spanish
  69. Default                                  : No
  70. Forced                                   : No

  71. Text #3
  72. ID                                       : 5
  73. Format                                   : UTF-8
  74. Codec ID                                 : S_TEXT/UTF8
  75. Codec ID/Info                            : UTF-8 Plain Text
  76. Duration                                 : 1 h 41 min
  77. Bit rate                                 : 54 b/s
  78. Count of elements                        : 1075
  79. Stream size                              : 40.7 KiB (0%)
  80. Language                                 : French
  81. Default                                  : No
  82. Forced                                   : No

  83. Text #4
  84. ID                                       : 6
  85. Format                                   : UTF-8
  86. Codec ID                                 : S_TEXT/UTF8
  87. Codec ID/Info                            : UTF-8 Plain Text
  88. Duration                                 : 1 h 41 min
  89. Bit rate                                 : 47 b/s
  90. Count of elements                        : 1116
  91. Stream size                              : 35.2 KiB (0%)
  92. Language                                 : Chinese
  93. Default                                  : No
  94. Forced                                   : No

  95. Text #5
  96. ID                                       : 7
  97. Format                                   : UTF-8
  98. Codec ID                                 : S_TEXT/UTF8
  99. Codec ID/Info                            : UTF-8 Plain Text
  100. Duration                                 : 1 h 41 min
  101. Bit rate                                 : 46 b/s
  102. Count of elements                        : 1115
  103. Stream size                              : 34.7 KiB (0%)
  104. Language                                 : Chinese
  105. Default                                  : No
  106. Forced                                   : No
复制代码

爱有来世/发现 The.Discovery.2017.1080p.NF.WEBRip.DD5.1.x264-TrollHD 3.54GB-2.png 爱有来世/发现 The.Discovery.2017.1080p.NF.WEBRip.DD5.1.x264-TrollHD 3.54GB-3.png 爱有来世/发现 The.Discovery.2017.1080p.NF.WEBRip.DD5.1.x264-TrollHD 3.54GB-4.png 爱有来世/发现 The.Discovery.2017.1080p.NF.WEBRip.DD5.1.x264-TrollHD 3.54GB-5.png 爱有来世/发现 The.Discovery.2017.1080p.NF.WEBRip.DD5.1.x264-TrollHD 3.54GB-6.png 爱有来世/发现 The.Discovery.2017.1080p.NF.WEBRip.DD5.1.x264-TrollHD 3.54GB-7.png







VIP会员免费任意下载本站所有资源!---点击开通
回复

使用道具 举报

懒得打字嘛,点击右侧快捷回复 【右侧内容,后台自定义】
您需要登录后才可以回帖 登录 | 立即注册

本版积分规则

QQ|Archiver|手机版|小黑屋| 中国高清网 |网站地图

GMT+8, 2019-11-22 04:44 , Processed in 0.242540 second(s), 37 queries .

Powered by HDchina X3.4

Copyright 2017-2019©HDchina.All right reserved

返回顶部 联系我们