查看: 39|回复: 0

[剧情片] 雨鳟之河 River.of.First.Love.2004.JAPANESE.1080p.AMZN.WEBRip.DDP2.0.x264-SbR 8.27GB

[复制链接]

 成长值: 3230

级别:资源管理组

注册时间
2017-10-20
最后登录
2019-11-21
听众
1
收听
0
主题
87390
蓝光币
63614 枚
贡献
11749 点
发表于 2019-10-23 23:27:05 | 显示全部楼层 |阅读模式
雨鳟之河 River.of.First.Love.2004.JAPANESE.1080p.AMZN.WEBRip.DDP2.0.x264-SbR 8.27GB-1.png

译  名 雨鳟之河 / Amemasu no kawa / River of First Love
片  名 雨鱒の川
年  代 2004
产  地 日本
类  别 剧情
语  言 日语
上映日期 2004-11-13(日本)
IMDb评分  6.4/10 from 86 users
IMDb链接  https://www.imdb.com/title/tt0396445
豆瓣评分 6.5/10 from 557 users
豆瓣链接 https://movie.douban.com/subject/1397350/
片  长 113分钟
导  演 矶村一路 Itsumichi Isomura
编  剧 矶村一路 Itsumichi Isomura / 小林弘利 Hirotoshi Kobayashi
主  演 玉木宏 Hiroshi Tamaki
       绫濑遥 Haruka Ayase
       须贺健太 Kenta Suga
       志田未来 Mirai Shida
       中谷美纪 Miki Nakatani
       阿部宽 Hiroshi Abe
       松冈俊介 Shunsuke Matsuoka
       伊藤步 Ayumi Ito
       星由里子 Yuriko Hoshi
       柄本明 Akira Emoto


标  签 玉木宏 | 日本电影 | 日本 | 綾瀬はるか | 绫濑遥 | 恋爱 | 阿部宽 | 雨鳟之河

简  介  

  虽然,我们不曾用说话相同,但,这很多年,我都确信,只要你,才真正晓得我想要的是什么,长大后,你越来越沉默了,跟妈妈的死有关吧,我一向想说,还有我,你并不孤独,却没法开口,我能做的只要陪在你身旁。
  你说你要去东京,我答应了,由于我晓得,简直那边才是你该去的地方,心里却止不住的难过。
  与你一路,不管天涯天涯,我都无怨无悔,该感激的人是我,但,父亲大人,不管若何请您体谅,若不能与心平一路,我的人生将毫无意义……
  1. Video
  2. ID                                       : 1
  3. Format                                   : AVC
  4. Format/Info                              : Advanced Video Codec
  5. Format profile                           : High@L4
  6. Format settings                          : CABAC / 4 Ref Frames
  7. Format settings, CABAC                   : Yes
  8. Format settings, Reference frames        : 4 frames
  9. Codec ID                                 : V_MPEG4/ISO/AVC
  10. Duration                                 : 1 h 54 min
  11. Bit rate mode                            : Variable
  12. Bit rate                                 : 10.1 Mb/s
  13. Maximum bit rate                         : 15.0 Mb/s
  14. Width                                    : 1 920 pixels
  15. Height                                   : 1 040 pixels
  16. Display aspect ratio                     : 1.85:1
  17. Frame rate mode                          : Constant
  18. Frame rate                               : 23.976 (24000/1001) FPS
  19. Color space                              : YUV
  20. Chroma subsampling                       : 4:2:0
  21. Bit depth                                : 8 bits
  22. Scan type                                : Progressive
  23. Bits/(Pixel*Frame)                       : 0.212
  24. Stream size                              : 8.09 GiB (98%)
  25. Writing library                          : x264 core 148 r2623 d5b2374
  26. Encoding settings                        : cabac=1 / ref=4 / deblock=1:-1:-1 / analyse=0x3:0x133 / me=umh / subme=9 / psy=1 / psy_rd=1.00:0.15 / mixed_ref=1 / me_range=24 / chroma_me=1 / trellis=2 / 8x8dct=1 / cqm=0 / deadzone=21,11 / fast_pskip=1 / chroma_qp_offset=-3 / threads=32 / lookahead_threads=5 / sliced_threads=0 / nr=150 / decimate=1 / interlaced=0 / bluray_compat=0 / constrained_intra=0 / bframes=8 / b_pyramid=2 / b_adapt=2 / b_bias=0 / direct=3 / weightb=1 / open_gop=0 / weightp=2 / keyint=120 / keyint_min=61 / scenecut=0 / intra_refresh=0 / rc_lookahead=120 / rc=crf / mbtree=1 / crf=18.0 / qcomp=0.60 / qpmin=0 / qpmax=69 / qpstep=4 / vbv_maxrate=15000 / vbv_bufsize=31250 / crf_max=0.0 / nal_hrd=vbr / filler=0 / ip_ratio=1.40 / aq=3:1.00
  27. Language                                 : Japanese
  28. Default                                  : Yes
  29. Forced                                   : No
  30. Color range                              : Limited
  31. Color primaries                          : BT.709
  32. Transfer characteristics                 : BT.709
  33. Matrix coefficients                      : BT.709

  34. Audio
  35. ID                                       : 2
  36. Format                                   : E-AC-3
  37. Format/Info                              : Enhanced AC-3
  38. Commercial name                          : Dolby Digital Plus
  39. Codec ID                                 : A_EAC3
  40. Duration                                 : 1 h 54 min
  41. Bit rate mode                            : Constant
  42. Bit rate                                 : 224 kb/s
  43. Channel(s)                               : 2 channels
  44. Channel layout                           : L R
  45. Sampling rate                            : 48.0 kHz
  46. Frame rate                               : 31.250 FPS (1536 SPF)
  47. Compression mode                         : Lossy
  48. Stream size                              : 183 MiB (2%)
  49. Language                                 : Japanese
  50. Service kind                             : Complete Main
  51. Default                                  : Yes
  52. Forced                                   : No

  53. Text
  54. ID                                       : 3
  55. Format                                   : UTF-8
  56. Codec ID                                 : S_TEXT/UTF8
  57. Codec ID/Info                            : UTF-8 Plain Text
  58. Duration                                 : 1 h 47 min
  59. Bit rate                                 : 18 b/s
  60. Count of elements                        : 571
  61. Stream size                              : 14.5 KiB (0%)
  62. Language                                 : English
  63. Default                                  : Yes
  64. Forced                                   : No
复制代码

雨鳟之河 River.of.First.Love.2004.JAPANESE.1080p.AMZN.WEBRip.DDP2.0.x264-SbR 8.27GB-2.png 雨鳟之河 River.of.First.Love.2004.JAPANESE.1080p.AMZN.WEBRip.DDP2.0.x264-SbR 8.27GB-3.png 雨鳟之河 River.of.First.Love.2004.JAPANESE.1080p.AMZN.WEBRip.DDP2.0.x264-SbR 8.27GB-4.png 雨鳟之河 River.of.First.Love.2004.JAPANESE.1080p.AMZN.WEBRip.DDP2.0.x264-SbR 8.27GB-5.png 雨鳟之河 River.of.First.Love.2004.JAPANESE.1080p.AMZN.WEBRip.DDP2.0.x264-SbR 8.27GB-6.png 雨鳟之河 River.of.First.Love.2004.JAPANESE.1080p.AMZN.WEBRip.DDP2.0.x264-SbR 8.27GB-7.png







VIP会员免费任意下载本站所有资源!---点击开通
回复

使用道具 举报

懒得打字嘛,点击右侧快捷回复 【右侧内容,后台自定义】
您需要登录后才可以回帖 登录 | 立即注册

本版积分规则

QQ|Archiver|手机版|小黑屋| 中国高清网 |网站地图

GMT+8, 2019-11-22 02:35 , Processed in 0.230633 second(s), 37 queries .

Powered by HDchina X3.4

Copyright 2017-2019©HDchina.All right reserved

返回顶部 联系我们