查看: 18|回复: 0

[剧情片] 曾经沧海难为水/再见爱丽斯 Alice.Doesnt.Live.Here.Anymore.1974.1080p.AMZN.WEBRip.DDP2.0.x264-SbR 11.19GB

[复制链接]

 成长值: 3230

级别:资源管理组

注册时间
2017-10-20
最后登录
2019-11-21
听众
1
收听
0
主题
87390
蓝光币
63614 枚
贡献
11749 点
发表于 2019-10-23 23:23:51 | 显示全部楼层 |阅读模式
已经沧海难为水/再会爱丽斯 Alice.Doesnt.Live.Here.Anymore.1974.1080p.AMZN.WEBRip.DDP2.0.x264-SbR 11.19GB-1.png

译  名 已经沧海难为水 / 再会爱丽斯 / 艾丽丝不再住在这里 / 艾丽丝不在这里
片  名 Alice Doesn't Live Here Anymore
年  代 1974
产  地 美国
类  别 剧情 / 恋爱
语  言 英语
上映日期 1974-12-09
IMDb评分  7.3/10 from 19056 users
IMDb链接  http://www.imdb.com/title/tt0071115
豆瓣评分 7.4/10 from 934 users
豆瓣链接 https://movie.douban.com/subject/1296596/
片  长 112 分钟
导  演 Martin Scorsese
编  剧 Robert Getchell
主  演 Ellen Burstyn
       Kris Kristofferson
       Alfred Lutter
       Diane Ladd
       Harvey Keitel
       Jodie Foster


标  签 美国 | 马丁·斯科塞斯 | MartinScorsese | 1974 | 美国电影 | 女性 | 恋爱 | 1970s

简  介  

  爱丽丝(艾伦·波斯蒂恩 Ellen Burstyn 饰)是一位全职太太,多年在家相夫教子,过着安静幸运的生活,但是,某日,她的丈夫在一场意围中归天了,带着十一岁的儿子汤米(阿尔弗雷德·卢特三世 Alfred Lutter III 饰),这对母子不能不步入刻毒的社会,起头为两人的未来打拼。
  年轻的时辰,爱丽丝酷爱唱歌,现在,她带着汤米来到了一座小城假寓,在酒吧卖唱。某日,爱丽丝碰见了名为本(哈威·凯特尔 Harvey Keitel 饰)的汉子,强健自傲的本叫醒了爱丽丝心里压制已久的豪情,就在她以为幸运的生活将要到临之时,却发现自己不外是坠入了另一个噩梦当中,面临接连而来的挫折,爱丽丝还可以顽强的生活下去吗?

获奖情况  

  第47届奥斯卡金像奖(1975)
  最好女配角 艾伦·伯斯汀
  最好女配角(提名) 戴安·拉德
  最好原创剧本(提名) 罗伯特·格彻尔

  第28届戛纳电影节(1975)
  主比赛单元 金棕榈奖(提名) 马丁·斯科塞斯
  1. Video
  2. ID                                       : 1
  3. Format                                   : AVC
  4. Format/Info                              : Advanced Video Codec
  5. Format profile                           : High@L4
  6. Format settings                          : CABAC / 4 Ref Frames
  7. Format settings, CABAC                   : Yes
  8. Format settings, Reference frames        : 4 frames
  9. Codec ID                                 : V_MPEG4/ISO/AVC
  10. Duration                                 : 1 h 52 min
  11. Bit rate mode                            : Variable
  12. Bit rate                                 : 13.9 Mb/s
  13. Maximum bit rate                         : 15.0 Mb/s
  14. Width                                    : 1 920 pixels
  15. Height                                   : 1 080 pixels
  16. Display aspect ratio                     : 16:9
  17. Frame rate mode                          : Constant
  18. Frame rate                               : 23.976 (24000/1001) FPS
  19. Color space                              : YUV
  20. Chroma subsampling                       : 4:2:0
  21. Bit depth                                : 8 bits
  22. Scan type                                : Progressive
  23. Bits/(Pixel*Frame)                       : 0.279
  24. Stream size                              : 10.9 GiB (97%)
  25. Writing library                          : x264 core 148 r2623 d5b2374
  26. Encoding settings                        : cabac=1 / ref=4 / deblock=1:-1:-1 / analyse=0x3:0x133 / me=umh / subme=9 / psy=1 / psy_rd=1.00:0.15 / mixed_ref=1 / me_range=24 / chroma_me=1 / trellis=2 / 8x8dct=1 / cqm=0 / deadzone=21,11 / fast_pskip=1 / chroma_qp_offset=-3 / threads=34 / lookahead_threads=5 / sliced_threads=0 / nr=150 / decimate=1 / interlaced=0 / bluray_compat=0 / constrained_intra=0 / bframes=8 / b_pyramid=2 / b_adapt=2 / b_bias=0 / direct=3 / weightb=1 / open_gop=0 / weightp=2 / keyint=120 / keyint_min=61 / scenecut=0 / intra_refresh=0 / rc_lookahead=120 / rc=crf / mbtree=1 / crf=18.0 / qcomp=0.60 / qpmin=0 / qpmax=69 / qpstep=4 / vbv_maxrate=15000 / vbv_bufsize=31250 / crf_max=0.0 / nal_hrd=vbr / filler=0 / ip_ratio=1.40 / aq=3:1.00
  27. Language                                 : English
  28. Default                                  : Yes
  29. Forced                                   : No
  30. Color range                              : Limited
  31. Color primaries                          : BT.709
  32. Transfer characteristics                 : BT.709
  33. Matrix coefficients                      : BT.709

  34. Audio #1
  35. ID                                       : 2
  36. Format                                   : E-AC-3
  37. Format/Info                              : Enhanced AC-3
  38. Commercial name                          : Dolby Digital Plus
  39. Codec ID                                 : A_EAC3
  40. Duration                                 : 1 h 52 min
  41. Bit rate mode                            : Constant
  42. Bit rate                                 : 224 kb/s
  43. Channel(s)                               : 2 channels
  44. Channel layout                           : L R
  45. Sampling rate                            : 48.0 kHz
  46. Frame rate                               : 31.250 FPS (1536 SPF)
  47. Compression mode                         : Lossy
  48. Stream size                              : 180 MiB (2%)
  49. Language                                 : English
  50. Service kind                             : Complete Main
  51. Default                                  : Yes
  52. Forced                                   : No

  53. Audio #2
  54. ID                                       : 3
  55. Format                                   : AC-3
  56. Format/Info                              : Audio Coding 3
  57. Commercial name                          : Dolby Digital
  58. Codec ID                                 : A_AC3
  59. Duration                                 : 1 h 52 min
  60. Bit rate mode                            : Constant
  61. Bit rate                                 : 192 kb/s
  62. Channel(s)                               : 1 channel
  63. Channel layout                           : C
  64. Sampling rate                            : 48.0 kHz
  65. Frame rate                               : 31.250 FPS (1536 SPF)
  66. Bit depth                                : 16 bits
  67. Compression mode                         : Lossy
  68. Stream size                              : 154 MiB (1%)
  69. Title                                    : Commentary by Director Martin Scorsese, Actress Ellen Burstyn and Actor Kris Kristofferson
  70. Language                                 : English
  71. Service kind                             : Complete Main
  72. Default                                  : No
  73. Forced                                   : No

  74. Text #1
  75. ID                                       : 4
  76. Format                                   : UTF-8
  77. Codec ID                                 : S_TEXT/UTF8
  78. Codec ID/Info                            : UTF-8 Plain Text
  79. Duration                                 : 1 h 49 min
  80. Bit rate                                 : 59 b/s
  81. Count of elements                        : 1306
  82. Stream size                              : 48.0 KiB (0%)
  83. Language                                 : English
  84. Default                                  : No
  85. Forced                                   : No

  86. Text #2
  87. ID                                       : 5
  88. Format                                   : UTF-8
  89. Codec ID                                 : S_TEXT/UTF8
  90. Codec ID/Info                            : UTF-8 Plain Text
  91. Duration                                 : 1 h 49 min
  92. Bit rate                                 : 63 b/s
  93. Count of elements                        : 2055
  94. Stream size                              : 51.4 KiB (0%)
  95. Title                                    : SDH
  96. Language                                 : English
  97. Default                                  : No
  98. Forced                                   : No

  99. Menu
  100. 00:00:00.000                             : en:Scene 1 – Studio Logos
  101. 00:00:18.000                             : en:Scene 2 - Opening Credits
  102. 00:02:38.000                             : en:Scene 3 – Young Alice Sings With Doll, Red Outdoors
  103. 00:03:45.000                             : en:Scene 4 – Alice Sews While Tommy Blasts Mott The Hoople On Stereo, Living Room
  104. 00:06:24.000                             : en:Scene 5 – Family Sits Down To Eat, Dining Room
  105. 00:08:11.000                             : en:Scene 6 – Alice Take Car For Repair, Garage
  106. 00:08:49.000                             : en:Scene 7 – Another Bad Family Dinner, Dining Room
  107. 00:10:15.000                             : en:Scene 8 – Alice & Donald Watch TV, Bedroom
  108. 00:11:31.000                             : en:Scene 9 – Bea Fits Alice For A Dress, Patio
  109. 00:13:25.000                             : en:Scene 10 – Alice & Tom Are Driven Back Home After Funeral, In Front Of House
  110. 00:15:38.000                             : en:Scene 11 – Alice Sings & Plays Piano, By Piano
  111. 00:18:17.000                             : en:Scene 12 – Alice Sells Off Her Earthly Possessions, Yard Sale
  112. 00:22:00.000                             : en:Scene 13 – Tom & Alice Drive While Listening To the Longest Elton John Song, Car
  113. 00:25:02.000                             : en:Scene 14 – Tom & Alice Talk About Jobs & Happiness, Hotel Room
  114. 00:26:31.000                             : en:Scene 15 – Alice Returns All Dressed In Green & She & Tom Argue, Hotel Room
  115. 00:29:37.000                             : en:Scene 16 – Alice Applies For Singing Jobs, Bars
  116. 00:32:36.000                             : en:Scene 17 – Alice Walks Into Jacob's Bar & Cries & Confides, Bar
  117. 00:35:59.000                             : en:Scene 18 – Jacobs & Alice Walk Into Piano Bar, Piano Bar
  118. 00:37:21.000                             : en:Scene 19 – Alice Auditions, Piano Bar
  119. 00:39:34.000                             : en:Scene 20 – Tom & Alice Eat Dinner & Then Alice Shaves Her Legs, Hotel Room
  120. 00:41:35.000                             : en:Scene 21 – Alice Sings To A Packed Audience, Piano Bar
  121. 00:42:51.000                             : en:Scene 22 – Ben Flirts With Alice, Piano Bar
  122. 00:45:49.000                             : en:Scene 23 – Tom Watches Movie & Ben Tries To Get A Kiss From Alice, Hotel
  123. 00:47:45.000                             : en:Scene 24 – Alice & Ben Kiss, Bowling Alley
  124. 00:48:50.000                             : en:Scene 25 – Alice & Tom Eat Breakfast, Kitchen
  125. 00:51:15.000                             : en:Scene 26 – Rita Visits To Talk To Alice, Kitchen
  126. 00:52:48.000                             : en:Scene 27 – Ben Abuses And Terrorizes Alice & Rita, Rental House
  127. 00:55:31.000                             : en:Scene 28 – Alice & Tom Pack In Panic, Rental House
  128. 00:56:19.000                             : en:Scene 29 – Tommy Tells Annoying Story To Alice, Car
  129. 00:58:45.000                             : en:Scene 30 – Alice & Tommy Move Into New Room After Getting Job & Groceries, Rental House
  130. 01:01:49.000                             : en:Scene 31 – Alice's First Day At Work, Diner
  131. 01:05:38.000                             : en:Scene 32 – Flo & Alice Talk It Out, Diner
  132. 01:06:42.000                             : en:Scene 33 – Tommy & Alice Throw Water At Each Other, Rental House
  133. 01:08:15.000                             : en:Scene 34 – Tommy & Audrey Leave Guitar Lessons, Alley
  134. 01:09:32.000                             : en:Scene 35 – David Flirts With Alice, Diner
  135. 01:11:51.000                             : en:Scene 36 – Waitresses Open The Store & David Brings A Horse To Entice Tommy, Diner
  136. 01:13:19.000                             : en:Scene 37 – Tommy Pleads Alice To Go Horse Riding Again, Rental House
  137. 01:14:01.000                             : en:Scene 38 – Tommy Rides Horse & Milks Cow While David & Alice Watch, Ranch
  138. 01:15:08.000                             : en:Scene 39 – David Plays Guitar With Tommy & Explains His Divorce, David’s Living Room
  139. 01:17:37.000                             : en:Scene 40 – Hectic Times In Waitressing, Diner
  140. 01:20:26.000                             : en:Scene 41 – Flo & Alice Sunbathe, Dirt Patch
  141. 01:22:11.000                             : en:Scene 42 – Tommy & Audrey Shoplift, Music Store
  142. 01:23:14.000                             : en:Scene 43 – Alice & David Kiss Outside, Near Fence
  143. 01:24:38.000                             : en:Scene 44 – Alice & David Tell Jokes, Kitchen
  144. 01:28:01.000                             : en:Scene 45 – Tommy & David Order Cheeseburgers, Diner
  145. 01:29:02.000                             : en:Scene 46 – David's Truck Leaks Oil & Alice Explains Why Tommy Can't Go Fishing, Kitchen
  146. 01:29:47.000                             : en:Scene 47 – Tommy Plays Cowboy & Alice & David Argue, Living Room
  147. 01:33:47.000                             : en:Scene 48 – Alice Picks Up Tommy Then Kicks Him Out, Car
  148. 01:35:19.000                             : en:Scene 49 – Alice Searches For Tommy, Car
  149. 01:37:22.000                             : en:Scene 50 – Alice Picks Up Tommy After Shoplifting, Jail
  150. 01:39:24.000                             : en:Scene 51 - Driving home, Road & home
  151. 01:40:19.000                             : en:Scene 52 – Alice & Flo Have Heart-To-Heart While Restaurant Goes WILD, Bathroom
  152. 01:43:32.000                             : en:Scene 53 – Alice & Flo Finish Talk, Bathroom
  153. 01:44:47.000                             : en:Scene 54 – David Apologizes To Alice, Diner
  154. 01:48:22.000                             : en:Scene 55 – Alice & Tommy Walk, Street
  155. 01:49:59.000                             : en:Scene 56 - End Credits
复制代码

已经沧海难为水/再会爱丽斯 Alice.Doesnt.Live.Here.Anymore.1974.1080p.AMZN.WEBRip.DDP2.0.x264-SbR 11.19GB-2.png 已经沧海难为水/再会爱丽斯 Alice.Doesnt.Live.Here.Anymore.1974.1080p.AMZN.WEBRip.DDP2.0.x264-SbR 11.19GB-3.png 已经沧海难为水/再会爱丽斯 Alice.Doesnt.Live.Here.Anymore.1974.1080p.AMZN.WEBRip.DDP2.0.x264-SbR 11.19GB-4.png 已经沧海难为水/再会爱丽斯 Alice.Doesnt.Live.Here.Anymore.1974.1080p.AMZN.WEBRip.DDP2.0.x264-SbR 11.19GB-5.png 已经沧海难为水/再会爱丽斯 Alice.Doesnt.Live.Here.Anymore.1974.1080p.AMZN.WEBRip.DDP2.0.x264-SbR 11.19GB-6.png 已经沧海难为水/再会爱丽斯 Alice.Doesnt.Live.Here.Anymore.1974.1080p.AMZN.WEBRip.DDP2.0.x264-SbR 11.19GB-7.png







VIP会员免费任意下载本站所有资源!---点击开通
回复

使用道具 举报

懒得打字嘛,点击右侧快捷回复 【右侧内容,后台自定义】
您需要登录后才可以回帖 登录 | 立即注册

本版积分规则

QQ|Archiver|手机版|小黑屋| 中国高清网 |网站地图

GMT+8, 2019-11-22 02:45 , Processed in 0.271888 second(s), 37 queries .

Powered by HDchina X3.4

Copyright 2017-2019©HDchina.All right reserved

返回顶部 联系我们