查看: 106|回复: 1

[10bit.HDR] 优步危机/斯图伯 Stuber.2019.2160p.UHD.BluRay.X265.10bit.HDR.TrueHD.7.1.Atmos-AViATOR 14.39GB

[复制链接]

 成长值: 2930

级别:资源管理组

注册时间
2017-10-20
最后登录
2019-10-24
听众
1
收听
0
主题
85436
蓝光币
56828 枚
贡献
9794 点
发表于 2019-10-7 14:31:51 | 显示全部楼层 |阅读模式
优步危机/斯图伯 Stuber.2019.2160p.UHD.BluRay.X265.10bit.HDR.TrueHD.7.1.Atmos-AViATOR 14.39GB-1.png

译  名 优步危机 / 斯图伯 / 狂玩嘢时速(港) / 玩命优步(台)
片  名 Stuber
年  代 2019
产  地 美国
类  别 笑剧 / 行动
语  言 英语
上映日期 2019-07-12(美国)
IMDb评分  6.2/10 from 9167 users
IMDb链接  http://www.imdb.com/title/tt7734218
豆瓣评分 6.5/10 from 246 users
豆瓣链接 https://movie.douban.com/subject/27603782/
片  长 105分钟
导  演 迈克尔·道斯 Michael Dowse
编  剧 特里珀·克兰西 Tripper Clancy
主  演 戴夫·巴蒂斯塔 Dave Bautista
       库梅尔·南贾尼 Kumail Nanjiani
       伊科·乌艾斯 Iko Uwais
       贝蒂·吉尔平 Betty Gilpin
       米拉·索维诺 Mira Sorvino
       娜塔丽·莫瑞丝 Natalie Morales
       约书亚·米克尔 Joshua Mikel
       阿明·约瑟夫 Amin Joseph
       斯科特·劳伦斯 Scott Lawrence
       克里斯汀·霍恩 Christine Horn
       汉斯·马雷罗 Hans Marrero
       雷内?莫兰 Rene Moran


标  签 笑剧 | 行动 | 美国 | 2019 | 犯罪 | 搞笑 | 二十世纪福克斯 | 家庭

简  介  

  南贾尼饰演一位性情温顺的Uber司机,某天载的乘客是一位头发花白的差人,他正在追捕一位残暴的杀手。司机发现自己面临艰难考验,他必必要连结冷静,保证办事质量以获得五星好评。

  1. Video
  2. ID                                       : 1
  3. Format                                   : HEVC
  4. Format/Info                              : High Efficiency Video Coding
  5. Format profile                           : Main 10@L5.1@High
  6. HDR format                               : SMPTE ST 2086, HDR10 compatible
  7. Codec ID                                 : V_MPEGH/ISO/HEVC
  8. Duration                                 : 1 h 33 min
  9. Bit rate                                 : 16.4 Mb/s
  10. Width                                    : 3 840 pixels
  11. Height                                   : 1 608 pixels
  12. Display aspect ratio                     : 2.40:1
  13. Frame rate mode                          : Constant
  14. Frame rate                               : 23.976 (24000/1001) FPS
  15. Color space                              : YUV
  16. Chroma subsampling                       : 4:2:0 (Type 2)
  17. Bit depth                                : 10 bits
  18. Bits/(Pixel*Frame)                       : 0.111
  19. Stream size                              : 10.7 GiB (75%)
  20. Writing library                          : x265 3.1+20-913823aa15cd:[Windows][GCC 6.3.0][64 bit] 10bit
  21. Encoding settings                        : cpuid=1111039 / frame-threads=4 / numa-pools=20 / wpp / no-pmode / no-pme / no-psnr / no-ssim / log-level=2 / input-csp=1 / input-res=3840x1608 / interlace=0 / total-frames=134363 / level-idc=51 / high-tier=1 / uhd-bd=0 / ref=4 / no-allow-non-conformance / repeat-headers / annexb / aud / hrd / info / hash=0 / no-temporal-layers / no-open-gop / min-keyint=1 / keyint=24 / gop-lookahead=0 / bframes=4 / b-adapt=2 / b-pyramid / bframe-bias=0 / rc-lookahead=25 / lookahead-slices=4 / scenecut=40 / radl=0 / no-splice / no-intra-refresh / ctu=64 / min-cu-size=8 / rect / no-amp / max-tu-size=32 / tu-inter-depth=1 / tu-intra-depth=1 / limit-tu=0 / rdoq-level=2 / dynamic-rd=0.00 / no-ssim-rd / signhide / no-tskip / nr-intra=0 / nr-inter=0 / no-constrained-intra / no-strong-intra-smoothing / max-merge=3 / limit-refs=3 / limit-modes / me=3 / subme=3 / merange=57 / temporal-mvp / no-hme / weightp / no-weightb / no-analyze-src-pics / deblock=-3:-3 / no-sao / no-sao-non-deblock / rd=4 / selective-sao=0 / no-early-skip / rskip / no-fast-intra / no-tskip-fast / no-cu-lossless / no-b-intra / no-splitrd-skip / rdpenalty=0 / psy-rd=2.00 / psy-rdoq=1.00 / no-rd-refine / no-lossless / cbqpoffs=0 / crqpoffs=0 / rc=crf / crf=17.0 / qcomp=0.60 / qpstep=4 / stats-write=0 / stats-read=0 / vbv-maxrate=160000 / vbv-bufsize=160000 / vbv-init=0.9 / crf-max=0.0 / crf-min=0.0 / ipratio=1.40 / pbratio=1.30 / aq-mode=1 / aq-strength=1.00 / cutree / zone-count=0 / no-strict-cbr / qg-size=32 / no-rc-grain / qpmax=69 / qpmin=0 / no-const-vbv / sar=1 / overscan=0 / videoformat=5 / range=0 / colorprim=9 / transfer=16 / colormatrix=9 / chromaloc=1 / chromaloc-top=2 / chromaloc-bottom=2 / display-window=0 / master-display=G(13250,34500)B(7500,3000)R(34000,16000)WP(15635,16450)L(10000000,50) / cll=0,0 / min-luma=0 / max-luma=1023 / log2-max-poc-lsb=8 / vui-timing-info / vui-hrd-info / slices=1 / no-opt-qp-pps / no-opt-ref-list-length-pps / no-multi-pass-opt-rps / scenecut-bias=0.05 / no-opt-cu-delta-qp / no-aq-motion / hdr / hdr-opt / no-dhdr10-opt / no-idr-recovery-sei / analysis-reuse-level=5 / scale-factor=0 / refine-intra=0 / refine-inter=0 / refine-mv=1 / refine-ctu-distortion=0 / no-limit-sao / ctu-info=0 / no-lowpass-dct / refine-analysis-type=0 / copy-pic=1 / max-ausize-factor=1.0 / no-dynamic-refine / no-single-sei / no-hevc-aq / no-svt / no-field / qp-adaptation-range=1.00
  22. Default                                  : Yes
  23. Forced                                   : No
  24. Color range                              : Limited
  25. Color primaries                          : BT.2020
  26. Transfer characteristics                 : PQ
  27. Matrix coefficients                      : BT.2020 non-constant
  28. Mastering display color primaries        : Display P3
  29. Mastering display luminance              : min: 0.0050 cd/m2, max: 1000 cd/m2

  30. Audio #1
  31. ID                                       : 2
  32. Format                                   : MLP FBA 16-ch
  33. Format/Info                              : Meridian Lossless Packing FBA with 16-channel presentation
  34. Commercial name                          : Dolby TrueHD with Dolby Atmos
  35. Codec ID                                 : A_TRUEHD
  36. Duration                                 : 1 h 33 min
  37. Bit rate mode                            : Variable
  38. Bit rate                                 : 3 937 kb/s
  39. Maximum bit rate                         : 6 696 kb/s
  40. Channel(s)                               : 8 channels
  41. Channel layout                           : L R C LFE Ls Rs Lb Rb
  42. Sampling rate                            : 48.0 kHz
  43. Frame rate                               : 1 200.000 FPS (40 SPF)
  44. Compression mode                         : Lossless
  45. Stream size                              : 2.57 GiB (18%)
  46. Language                                 : English
  47. Default                                  : Yes
  48. Forced                                   : No
  49. Number of dynamic objects                : 13
  50. Bed channel count                        : 1 channel
  51. Bed channel configuration                : LFE

  52. Audio #2
  53. ID                                       : 3
  54. Format                                   : AC-3
  55. Format/Info                              : Audio Coding 3
  56. Commercial name                          : Dolby Digital
  57. Codec ID                                 : A_AC3
  58. Duration                                 : 1 h 33 min
  59. Bit rate mode                            : Constant
  60. Bit rate                                 : 640 kb/s
  61. Channel(s)                               : 6 channels
  62. Channel layout                           : L R C LFE Ls Rs
  63. Sampling rate                            : 48.0 kHz
  64. Frame rate                               : 31.250 FPS (1536 SPF)
  65. Bit depth                                : 16 bits
  66. Compression mode                         : Lossy
  67. Stream size                              : 428 MiB (3%)
  68. Language                                 : English
  69. Service kind                             : Complete Main
  70. Default                                  : No
  71. Forced                                   : No

  72. Audio #3
  73. ID                                       : 4
  74. Format                                   : AC-3
  75. Format/Info                              : Audio Coding 3
  76. Commercial name                          : Dolby Digital
  77. Codec ID                                 : A_AC3
  78. Duration                                 : 1 h 33 min
  79. Bit rate mode                            : Constant
  80. Bit rate                                 : 224 kb/s
  81. Channel(s)                               : 2 channels
  82. Channel layout                           : L R
  83. Sampling rate                            : 48.0 kHz
  84. Frame rate                               : 31.250 FPS (1536 SPF)
  85. Bit depth                                : 16 bits
  86. Compression mode                         : Lossy
  87. Stream size                              : 150 MiB (1%)
  88. Title                                    : Commentary
  89. Language                                 : English
  90. Service kind                             : Complete Main
  91. Default                                  : No
  92. Forced                                   : No

  93. Text #1
  94. ID                                       : 5
  95. Format                                   : PGS
  96. Muxing mode                              : zlib
  97. Codec ID                                 : S_HDMV/PGS
  98. Codec ID/Info                            : Picture based subtitle format used on BDs/HD-DVDs
  99. Duration                                 : 1 h 27 min
  100. Bit rate                                 : 62.4 kb/s
  101. Count of elements                        : 4306
  102. Stream size                              : 38.9 MiB (0%)
  103. Title                                    : SDH
  104. Language                                 : English
  105. Default                                  : No
  106. Forced                                   : No

  107. Text #2
  108. ID                                       : 6
  109. Format                                   : PGS
  110. Muxing mode                              : zlib
  111. Codec ID                                 : S_HDMV/PGS
  112. Codec ID/Info                            : Picture based subtitle format used on BDs/HD-DVDs
  113. Duration                                 : 1 h 32 min
  114. Bit rate                                 : 47.6 kb/s
  115. Count of elements                        : 3592
  116. Stream size                              : 31.5 MiB (0%)
  117. Language                                 : Spanish
  118. Default                                  : No
  119. Forced                                   : No

  120. Text #3
  121. ID                                       : 7
  122. Format                                   : PGS
  123. Muxing mode                              : zlib
  124. Codec ID                                 : S_HDMV/PGS
  125. Codec ID/Info                            : Picture based subtitle format used on BDs/HD-DVDs
  126. Duration                                 : 1 h 32 min
  127. Bit rate                                 : 43.5 kb/s
  128. Count of elements                        : 3572
  129. Stream size                              : 28.8 MiB (0%)
  130. Language                                 : French
  131. Default                                  : No
  132. Forced                                   : No

  133. Text #4
  134. ID                                       : 8
  135. Format                                   : PGS
  136. Muxing mode                              : zlib
  137. Codec ID                                 : S_HDMV/PGS
  138. Codec ID/Info                            : Picture based subtitle format used on BDs/HD-DVDs
  139. Duration                                 : 1 h 32 min
  140. Bit rate                                 : 43.9 kb/s
  141. Count of elements                        : 3262
  142. Stream size                              : 29.1 MiB (0%)
  143. Language                                 : Spanish
  144. Default                                  : No
  145. Forced                                   : No

  146. Text #5
  147. ID                                       : 9
  148. Format                                   : PGS
  149. Muxing mode                              : zlib
  150. Codec ID                                 : S_HDMV/PGS
  151. Codec ID/Info                            : Picture based subtitle format used on BDs/HD-DVDs
  152. Duration                                 : 1 h 32 min
  153. Bit rate                                 : 41.9 kb/s
  154. Count of elements                        : 2234
  155. Stream size                              : 27.7 MiB (0%)
  156. Language                                 : Danish
  157. Default                                  : No
  158. Forced                                   : No

  159. Text #6
  160. ID                                       : 10
  161. Format                                   : PGS
  162. Muxing mode                              : zlib
  163. Codec ID                                 : S_HDMV/PGS
  164. Codec ID/Info                            : Picture based subtitle format used on BDs/HD-DVDs
  165. Duration                                 : 1 h 32 min
  166. Bit rate                                 : 38.9 kb/s
  167. Count of elements                        : 2362
  168. Stream size                              : 25.7 MiB (0%)
  169. Language                                 : Dutch
  170. Default                                  : No
  171. Forced                                   : No

  172. Text #7
  173. ID                                       : 11
  174. Format                                   : PGS
  175. Muxing mode                              : zlib
  176. Codec ID                                 : S_HDMV/PGS
  177. Codec ID/Info                            : Picture based subtitle format used on BDs/HD-DVDs
  178. Duration                                 : 1 h 32 min
  179. Bit rate                                 : 42.0 kb/s
  180. Count of elements                        : 3584
  181. Stream size                              : 27.8 MiB (0%)
  182. Language                                 : Finnish
  183. Default                                  : No
  184. Forced                                   : No

  185. Text #8
  186. ID                                       : 12
  187. Format                                   : PGS
  188. Muxing mode                              : zlib
  189. Codec ID                                 : S_HDMV/PGS
  190. Codec ID/Info                            : Picture based subtitle format used on BDs/HD-DVDs
  191. Duration                                 : 1 h 32 min
  192. Bit rate                                 : 46.3 kb/s
  193. Count of elements                        : 3386
  194. Stream size                              : 30.7 MiB (0%)
  195. Language                                 : German
  196. Default                                  : No
  197. Forced                                   : No

  198. Text #9
  199. ID                                       : 13
  200. Format                                   : PGS
  201. Muxing mode                              : zlib
  202. Codec ID                                 : S_HDMV/PGS
  203. Codec ID/Info                            : Picture based subtitle format used on BDs/HD-DVDs
  204. Duration                                 : 1 h 32 min
  205. Bit rate                                 : 41.6 kb/s
  206. Count of elements                        : 3624
  207. Stream size                              : 27.5 MiB (0%)
  208. Language                                 : Italian
  209. Default                                  : No
  210. Forced                                   : No

  211. Text #10
  212. ID                                       : 14
  213. Format                                   : PGS
  214. Muxing mode                              : zlib
  215. Codec ID                                 : S_HDMV/PGS
  216. Codec ID/Info                            : Picture based subtitle format used on BDs/HD-DVDs
  217. Duration                                 : 1 h 32 min
  218. Bit rate                                 : 27.7 kb/s
  219. Count of elements                        : 3040
  220. Stream size                              : 18.3 MiB (0%)
  221. Language                                 : Japanese
  222. Default                                  : No
  223. Forced                                   : No

  224. Text #11
  225. ID                                       : 15
  226. Format                                   : PGS
  227. Muxing mode                              : zlib
  228. Codec ID                                 : S_HDMV/PGS
  229. Codec ID/Info                            : Picture based subtitle format used on BDs/HD-DVDs
  230. Duration                                 : 1 h 20 min
  231. Bit rate                                 : 364 b/s
  232. Count of elements                        : 46
  233. Stream size                              : 215 KiB (0%)
  234. Language                                 : Japanese
  235. Default                                  : No
  236. Forced                                   : No

  237. Text #12
  238. ID                                       : 16
  239. Format                                   : PGS
  240. Muxing mode                              : zlib
  241. Codec ID                                 : S_HDMV/PGS
  242. Codec ID/Info                            : Picture based subtitle format used on BDs/HD-DVDs
  243. Duration                                 : 1 h 32 min
  244. Bit rate                                 : 44.0 kb/s
  245. Count of elements                        : 3622
  246. Stream size                              : 29.1 MiB (0%)
  247. Language                                 : Norwegian
  248. Default                                  : No
  249. Forced                                   : No

  250. Text #13
  251. ID                                       : 17
  252. Format                                   : PGS
  253. Muxing mode                              : zlib
  254. Codec ID                                 : S_HDMV/PGS
  255. Codec ID/Info                            : Picture based subtitle format used on BDs/HD-DVDs
  256. Duration                                 : 1 h 32 min
  257. Bit rate                                 : 43.0 kb/s
  258. Count of elements                        : 3620
  259. Stream size                              : 28.5 MiB (0%)
  260. Language                                 : Swedish
  261. Default                                  : No
  262. Forced                                   : No

  263. Text #14
  264. ID                                       : 18
  265. Format                                   : PGS
  266. Muxing mode                              : zlib
  267. Codec ID                                 : S_HDMV/PGS
  268. Codec ID/Info                            : Picture based subtitle format used on BDs/HD-DVDs
  269. Duration                                 : 1 h 32 min
  270. Bit rate                                 : 43.7 kb/s
  271. Count of elements                        : 3626
  272. Stream size                              : 29.0 MiB (0%)
  273. Language                                 : Czech
  274. Default                                  : No
  275. Forced                                   : No

  276. Text #15
  277. ID                                       : 19
  278. Format                                   : PGS
  279. Muxing mode                              : zlib
  280. Codec ID                                 : S_HDMV/PGS
  281. Codec ID/Info                            : Picture based subtitle format used on BDs/HD-DVDs
  282. Duration                                 : 1 h 32 min
  283. Bit rate                                 : 44.2 kb/s
  284. Count of elements                        : 3588
  285. Stream size                              : 29.3 MiB (0%)
  286. Language                                 : Hungarian
  287. Default                                  : No
  288. Forced                                   : No

  289. Text #16
  290. ID                                       : 20
  291. Format                                   : PGS
  292. Muxing mode                              : zlib
  293. Codec ID                                 : S_HDMV/PGS
  294. Codec ID/Info                            : Picture based subtitle format used on BDs/HD-DVDs
  295. Duration                                 : 1 h 32 min
  296. Bit rate                                 : 29.0 kb/s
  297. Count of elements                        : 3626
  298. Stream size                              : 19.2 MiB (0%)
  299. Language                                 : Korean
  300. Default                                  : No
  301. Forced                                   : No

  302. Text #17
  303. ID                                       : 21
  304. Format                                   : PGS
  305. Muxing mode                              : zlib
  306. Codec ID                                 : S_HDMV/PGS
  307. Codec ID/Info                            : Picture based subtitle format used on BDs/HD-DVDs
  308. Duration                                 : 1 h 28 min
  309. Bit rate                                 : 90.7 kb/s
  310. Count of elements                        : 4246
  311. Stream size                              : 57.4 MiB (0%)
  312. Title                                    : Commentary
  313. Language                                 : English
  314. Default                                  : No
  315. Forced                                   : No

  316. Text #18
  317. ID                                       : 22
  318. Format                                   : PGS
  319. Muxing mode                              : zlib
  320. Codec ID                                 : S_HDMV/PGS
  321. Codec ID/Info                            : Picture based subtitle format used on BDs/HD-DVDs
  322. Duration                                 : 1 h 33 min
  323. Bit rate                                 : 71.0 kb/s
  324. Count of elements                        : 3970
  325. Stream size                              : 47.3 MiB (0%)
  326. Title                                    : Commentary
  327. Language                                 : Spanish
  328. Default                                  : No
  329. Forced                                   : No

  330. Text #19
  331. ID                                       : 23
  332. Format                                   : PGS
  333. Muxing mode                              : zlib
  334. Codec ID                                 : S_HDMV/PGS
  335. Codec ID/Info                            : Picture based subtitle format used on BDs/HD-DVDs
  336. Duration                                 : 1 h 33 min
  337. Bit rate                                 : 71.4 kb/s
  338. Count of elements                        : 3964
  339. Stream size                              : 47.6 MiB (0%)
  340. Title                                    : Commentary
  341. Language                                 : French
  342. Default                                  : No
  343. Forced                                   : No

  344. Text #20
  345. ID                                       : 24
  346. Format                                   : PGS
  347. Muxing mode                              : zlib
  348. Codec ID                                 : S_HDMV/PGS
  349. Codec ID/Info                            : Picture based subtitle format used on BDs/HD-DVDs
  350. Duration                                 : 1 h 33 min
  351. Bit rate                                 : 69.5 kb/s
  352. Count of elements                        : 3972
  353. Stream size                              : 46.3 MiB (0%)
  354. Title                                    : Commentary
  355. Language                                 : Spanish
  356. Default                                  : No
  357. Forced                                   : No

  358. Text #21
  359. ID                                       : 25
  360. Format                                   : PGS
  361. Muxing mode                              : zlib
  362. Codec ID                                 : S_HDMV/PGS
  363. Codec ID/Info                            : Picture based subtitle format used on BDs/HD-DVDs
  364. Duration                                 : 1 h 33 min
  365. Bit rate                                 : 68.5 kb/s
  366. Count of elements                        : 3958
  367. Stream size                              : 45.7 MiB (0%)
  368. Title                                    : Commentary
  369. Language                                 : Danish
  370. Default                                  : No
  371. Forced                                   : No

  372. Text #22
  373. ID                                       : 26
  374. Format                                   : PGS
  375. Muxing mode                              : zlib
  376. Codec ID                                 : S_HDMV/PGS
  377. Codec ID/Info                            : Picture based subtitle format used on BDs/HD-DVDs
  378. Duration                                 : 1 h 33 min
  379. Bit rate                                 : 63.7 kb/s
  380. Count of elements                        : 3842
  381. Stream size                              : 42.5 MiB (0%)
  382. Title                                    : Commentary
  383. Language                                 : Dutch
  384. Default                                  : No
  385. Forced                                   : No

  386. Text #23
  387. ID                                       : 27
  388. Format                                   : PGS
  389. Muxing mode                              : zlib
  390. Codec ID                                 : S_HDMV/PGS
  391. Codec ID/Info                            : Picture based subtitle format used on BDs/HD-DVDs
  392. Duration                                 : 1 h 33 min
  393. Bit rate                                 : 67.5 kb/s
  394. Count of elements                        : 3962
  395. Stream size                              : 45.0 MiB (0%)
  396. Title                                    : Commentary
  397. Language                                 : Finnish
  398. Default                                  : No
  399. Forced                                   : No

  400. Text #24
  401. ID                                       : 28
  402. Format                                   : PGS
  403. Muxing mode                              : zlib
  404. Codec ID                                 : S_HDMV/PGS
  405. Codec ID/Info                            : Picture based subtitle format used on BDs/HD-DVDs
  406. Duration                                 : 1 h 33 min
  407. Bit rate                                 : 79.2 kb/s
  408. Count of elements                        : 3950
  409. Stream size                              : 52.8 MiB (0%)
  410. Title                                    : Commentary
  411. Language                                 : German
  412. Default                                  : No
  413. Forced                                   : No

  414. Text #25
  415. ID                                       : 29
  416. Format                                   : PGS
  417. Muxing mode                              : zlib
  418. Codec ID                                 : S_HDMV/PGS
  419. Codec ID/Info                            : Picture based subtitle format used on BDs/HD-DVDs
  420. Duration                                 : 1 h 33 min
  421. Bit rate                                 : 71.4 kb/s
  422. Count of elements                        : 3974
  423. Stream size                              : 47.6 MiB (0%)
  424. Title                                    : Commentary
  425. Language                                 : Italian
  426. Default                                  : No
  427. Forced                                   : No

  428. Text #26
  429. ID                                       : 30
  430. Format                                   : PGS
  431. Muxing mode                              : zlib
  432. Codec ID                                 : S_HDMV/PGS
  433. Codec ID/Info                            : Picture based subtitle format used on BDs/HD-DVDs
  434. Duration                                 : 1 h 33 min
  435. Bit rate                                 : 32.1 kb/s
  436. Count of elements                        : 2226
  437. Stream size                              : 21.4 MiB (0%)
  438. Title                                    : Commentary
  439. Language                                 : Japanese
  440. Default                                  : No
  441. Forced                                   : No

  442. Text #27
  443. ID                                       : 31
  444. Format                                   : PGS
  445. Muxing mode                              : zlib
  446. Codec ID                                 : S_HDMV/PGS
  447. Codec ID/Info                            : Picture based subtitle format used on BDs/HD-DVDs
  448. Duration                                 : 1 h 33 min
  449. Bit rate                                 : 68.9 kb/s
  450. Count of elements                        : 3974
  451. Stream size                              : 45.9 MiB (0%)
  452. Title                                    : Commentary
  453. Language                                 : Norwegian
  454. Default                                  : No
  455. Forced                                   : No

  456. Text #28
  457. ID                                       : 32
  458. Format                                   : PGS
  459. Muxing mode                              : zlib
  460. Codec ID                                 : S_HDMV/PGS
  461. Codec ID/Info                            : Picture based subtitle format used on BDs/HD-DVDs
  462. Duration                                 : 1 h 33 min
  463. Bit rate                                 : 64.3 kb/s
  464. Count of elements                        : 3974
  465. Stream size                              : 42.9 MiB (0%)
  466. Title                                    : Commentary
  467. Language                                 : Swedish
  468. Default                                  : No
  469. Forced                                   : No

  470. Text #29
  471. ID                                       : 33
  472. Format                                   : PGS
  473. Muxing mode                              : zlib
  474. Codec ID                                 : S_HDMV/PGS
  475. Codec ID/Info                            : Picture based subtitle format used on BDs/HD-DVDs
  476. Duration                                 : 1 h 33 min
  477. Bit rate                                 : 45.0 kb/s
  478. Count of elements                        : 3976
  479. Stream size                              : 30.0 MiB (0%)
  480. Title                                    : Commentary
  481. Language                                 : Korean
  482. Default                                  : No
  483. Forced                                   : No

  484. Menu
  485. 00:00:00.000                             : :Chapter 01
  486. 00:05:52.435                             : :Chapter 02
  487. 00:09:57.222                             : :Chapter 03
  488. 00:14:14.854                             : :Chapter 04
  489. 00:17:30.675                             : :Chapter 05
  490. 00:19:46.310                             : :Chapter 06
  491. 00:22:40.276                             : :Chapter 07
  492. 00:27:33.402                             : :Chapter 08
  493. 00:31:30.889                             : :Chapter 09
  494. 00:33:19.247                             : :Chapter 10
  495. 00:35:39.888                             : :Chapter 11
  496. 00:40:13.036                             : :Chapter 12
  497. 00:45:05.202                             : :Chapter 13
  498. 00:49:10.114                             : :Chapter 14
  499. 00:52:36.987                             : :Chapter 15
  500. 00:56:46.111                             : :Chapter 16
  501. 01:01:54.252                             : :Chapter 17
  502. 01:05:43.648                             : :Chapter 18
  503. 01:08:37.196                             : :Chapter 19
  504. 01:13:31.157                             : :Chapter 20
  505. 01:16:44.517                             : :Chapter 21
  506. 01:19:07.534                             : :Chapter 22
  507. 01:23:54.780                             : :Chapter 23
  508. 01:27:49.598                             : :Chapter 24
复制代码
163537zjxyfzjbww5z2x0q.png 163542x022agqi06r0k33i.png 163543sqooswwiqq8z7to7.png



本帖隐藏的下载地址需要VIP会员才可阅读,您需要升级才可阅读,点击这里升级VIP

VIP会员免费任意下载本站所有资源!---点击开通
回复

使用道具 举报

级别:专业龙套 Lv.4

注册时间
2019-3-30
最后登录
2019-10-22
听众
14
收听
0
主题
0
蓝光币
345 枚
贡献
0 点
发表于 2019-10-7 22:43:06 | 显示全部楼层
看介绍有点意思
VIP会员免费任意下载本站所有资源!---点击开通
回复

使用道具 举报

懒得打字嘛,点击右侧快捷回复 【右侧内容,后台自定义】
您需要登录后才可以回帖 登录 | 立即注册

本版积分规则

QQ|Archiver|手机版|小黑屋| 中国高清网 |网站地图

GMT+8, 2019-10-24 08:17 , Processed in 0.426480 second(s), 39 queries .

Powered by HDchina X3.4

Copyright 2017-2019©HDchina.All right reserved

返回顶部 联系我们