查看: 39|回复: 1

[剧情片] 逃亡者/欲火情焰 The.Fugitive.Kind.1960.1080p.AMZN.WEBRip.DDP2.0.x264-SbR 10.61GB

[复制链接]

 成长值: 2930

级别:资源管理组

注册时间
2017-10-20
最后登录
2019-10-24
听众
1
收听
0
主题
85436
蓝光币
56824 枚
贡献
9794 点
发表于 2019-9-21 13:46:56 | 显示全部楼层 |阅读模式
流亡者/欲火情焰 The.Fugitive.Kind.1960.1080p.AMZN.WEBRip.DDP2.0.x264-SbR 10.61GB-1.png

译  名 流亡者 / 欲火情焰 / 流浪者 / 漂泊者
片  名 The Fugitive Kind
年  代 1960
产  地 美国
类  别 剧情 / 恋爱
语  言 英语
上映日期 1960-04-14(美国)
IMDb评分  7.2/10 from 4936 users
IMDb链接  http://www.imdb.com/title/tt0052832
豆瓣评分 7.2/10 from 656 users
豆瓣链接 https://movie.douban.com/subject/1293217/
片  长 119 分钟
导  演 Sidney Lumet
编  剧 Tennessee Williams / Meade Roberts
主  演 Marlon Brando
       Anna Magnani
       Joanne Woodward
       Maureen Stapleton


标  签 美国 | Sidney_Lumet | CC | 美国电影 | 马龙·白兰度 | SidneyLumet | 西德尼·吕美特 | MarlonBrando

简  介  

  悉尼.卢曼特导演的这部低调的言情浅显剧改编自田纳西.威廉斯的剧作《奥菲阿斯下凡》。由马龙.白兰度、安娜.玛格纳妮、乔安妮.伍德沃德等主演。剧情报告一个小镇糖果店的女老板,在偶然机遇下发现她那半身不遂的丈夫昔时竟黑暗烧毁她父亲的葡萄园,害得她流浪失所。因而转而向年轻的流浪吉它手身上追求幸运,可是她恶毒的丈夫不愿放过她,终极还把她射杀。故事由于选角毛病,加上编导腔调暖昧,使人对片中的三角恋爱难以佩服。
  1. Video
  2. ID                                       : 1
  3. Format                                   : AVC
  4. Format/Info                              : Advanced Video Codec
  5. Format profile                           : High@L4
  6. Format settings                          : CABAC / 4 Ref Frames
  7. Format settings, CABAC                   : Yes
  8. Format settings, Reference frames        : 4 frames
  9. Codec ID                                 : V_MPEG4/ISO/AVC
  10. Duration                                 : 2 h 1 min
  11. Bit rate mode                            : Variable
  12. Bit rate                                 : 12.3 Mb/s
  13. Maximum bit rate                         : 15.0 Mb/s
  14. Width                                    : 1 800 pixels
  15. Height                                   : 1 080 pixels
  16. Display aspect ratio                     : 5:3
  17. Frame rate mode                          : Constant
  18. Frame rate                               : 23.976 (24000/1001) FPS
  19. Color space                              : YUV
  20. Chroma subsampling                       : 4:2:0
  21. Bit depth                                : 8 bits
  22. Scan type                                : Progressive
  23. Bits/(Pixel*Frame)                       : 0.263
  24. Stream size                              : 10.4 GiB (98%)
  25. Language                                 : English
  26. Default                                  : Yes
  27. Forced                                   : No
  28. Color range                              : Limited
  29. Color primaries                          : BT.709
  30. Transfer characteristics                 : BT.709
  31. Matrix coefficients                      : BT.709

  32. Audio
  33. ID                                       : 2
  34. Format                                   : E-AC-3
  35. Format/Info                              : Enhanced AC-3
  36. Commercial name                          : Dolby Digital Plus
  37. Codec ID                                 : A_EAC3
  38. Duration                                 : 2 h 1 min
  39. Bit rate mode                            : Constant
  40. Bit rate                                 : 224 kb/s
  41. Channel(s)                               : 2 channels
  42. Channel layout                           : L R
  43. Sampling rate                            : 48.0 kHz
  44. Frame rate                               : 31.250 FPS (1536 SPF)
  45. Compression mode                         : Lossy
  46. Stream size                              : 195 MiB (2%)
  47. Language                                 : English
  48. Service kind                             : Complete Main
  49. Default                                  : Yes
  50. Forced                                   : No

  51. Text #1
  52. ID                                       : 3
  53. Format                                   : UTF-8
  54. Codec ID                                 : S_TEXT/UTF8
  55. Codec ID/Info                            : UTF-8 Plain Text
  56. Duration                                 : 1 h 59 min
  57. Bit rate                                 : 56 b/s
  58. Count of elements                        : 1630
  59. Stream size                              : 49.1 KiB (0%)
  60. Language                                 : English
  61. Default                                  : No
  62. Forced                                   : No

  63. Text #2
  64. ID                                       : 4
  65. Format                                   : UTF-8
  66. Codec ID                                 : S_TEXT/UTF8
  67. Codec ID/Info                            : UTF-8 Plain Text
  68. Duration                                 : 1 h 59 min
  69. Bit rate                                 : 58 b/s
  70. Count of elements                        : 1741
  71. Stream size                              : 51.5 KiB (0%)
  72. Title                                    : SDH
  73. Language                                 : English
  74. Default                                  : No
  75. Forced                                   : No

  76. Menu
  77. 00:00:00.000                             : :01. Val Xavier
  78. 00:07:59.562                             : :02. The Kindness of Strangers
  79. 00:15:15.998                             : :03. Torrance Mercantile Store
  80. 00:19:53.067                             : :04. "Welcome Home, Jabe"
  81. 00:22:51.203                             : :05. Carol, Cutrere
  82. 00:25:31.822                             : :06. Junkin'
  83. 00:29:21.468                             : :07. Local Bone Orchard
  84. 00:36:17.342                             : :08. Lady Torrance
  85. 00:43:23.309                             : :09. "A Peculiar Talker"
  86. 00:51:42.057                             : :10. "Fly Away, Little Bird"
  87. 01:01:02.158                             : :11. "The Summer You Quit Me"
  88. 01:05:07.112                             : :12. Jabe Calls on Val
  89. 01:10:20.842                             : :13. The Wine Garden
  90. 01:14:59.870                             : :14. A Room for Val
  91. 01:20:11.598                             : :15. "I Took Nobody with Me"
  92. 01:21:54.993                             : :16. "I See Through You, Lady"
  93. 01:28:13.788                             : :17. Lady's Confectionary
  94. 01:37:11.576                             : :18. The Sheriff Questions Val
  95. 01:41:23.703                             : :19. Night of the Opening
  96. 01:49:32.775                             : :20. Little Fig Tree
  97. 01:55:02.771                             : :21. Vigilantes
  98. 01:57:41.680                             : :22. "The Fugitive Kind"
复制代码

流亡者/欲火情焰 The.Fugitive.Kind.1960.1080p.AMZN.WEBRip.DDP2.0.x264-SbR 10.61GB-2.png 流亡者/欲火情焰 The.Fugitive.Kind.1960.1080p.AMZN.WEBRip.DDP2.0.x264-SbR 10.61GB-3.png 流亡者/欲火情焰 The.Fugitive.Kind.1960.1080p.AMZN.WEBRip.DDP2.0.x264-SbR 10.61GB-4.png







VIP会员免费任意下载本站所有资源!---点击开通
回复

使用道具 举报

级别:一举成名 Lv.7

注册时间
2019-4-24
最后登录
2019-10-23
听众
13
收听
0
主题
0
蓝光币
167 枚
贡献
0 点
发表于 2019-9-23 10:52:02 | 显示全部楼层
楼主发贴辛苦了,谢谢楼主分享!我觉得中国高清电影网是注册对了!
VIP会员免费任意下载本站所有资源!---点击开通
回复

使用道具 举报

懒得打字嘛,点击右侧快捷回复 【右侧内容,后台自定义】
您需要登录后才可以回帖 登录 | 立即注册

本版积分规则

QQ|Archiver|手机版|小黑屋| 中国高清网 |网站地图

GMT+8, 2019-10-24 06:54 , Processed in 0.274598 second(s), 39 queries .

Powered by HDchina X3.4

Copyright 2017-2019©HDchina.All right reserved

返回顶部 联系我们